  0
SECTION
  2
HEADER
  9
$ACADVER
  1
AC1006
  9
$DWGCODEPAGE
  3
ansi_950
  9
$INSBASE
 10
0.0
 20
0.0
 30
0.0
  9
$EXTMIN
 10
-0.0340733197792815
 20
-0.0115961488266976
  9
$EXTMAX
 10
558.3169065919101
 20
190.0115980243685
  9
$LIMMIN
 10
0.0
 20
0.0
  9
$LIMMAX
 10
12.0
 20
9.0
  9
$ORTHOMODE
 70
     1
  9
$REGENMODE
 70
     1
  9
$FILLMODE
 70
     1
  9
$QTEXTMODE
 70
     0
  9
$MIRRTEXT
 70
     0
  9
$DRAGMODE
 70
     2
  9
$LTSCALE
 40
1.0
  9
$OSMODE
 70
    37
  9
$ATTMODE
 70
     1
  9
$TEXTSIZE
 40
0.2
  9
$TRACEWID
 40
0.05
  9
$TEXTSTYLE
  7
STANDARD
  9
$CLAYER
  8
本體外線
  9
$CELTYPE
  6
BYLAYER
  9
$CECOLOR
 62
   256
  9
$DIMSCALE
 40
1.0
  9
$DIMASZ
 40
2.5
  9
$DIMEXO
 40
0.85
  9
$DIMDLI
 40
3.75
  9
$DIMRND
 40
0.0
  9
$DIMDLE
 40
0.0
  9
$DIMEXE
 40
0.85
  9
$DIMTP
 40
0.0
  9
$DIMTM
 40
0.0
  9
$DIMTXT
 40
2.5
  9
$DIMCEN
 40
2.5
  9
$DIMTSZ
 40
0.0
  9
$DIMTOL
 70
     0
  9
$DIMLIM
 70
     0
  9
$DIMTIH
 70
     0
  9
$DIMTOH
 70
     0
  9
$DIMSE1
 70
     0
  9
$DIMSE2
 70
     0
  9
$DIMTAD
 70
     1
  9
$DIMZIN
 70
     8
  9
$DIMBLK
  1
OPEN30
  9
$DIMASO
 70
     1
  9
$DIMSHO
 70
     1
  9
$DIMPOST
  1

  9
$DIMAPOST
  1

  9
$DIMALT
 70
     0
  9
$DIMALTD
 70
     3
  9
$DIMALTF
 40
0.03937007874016
  9
$DIMLFAC
 40
1.0
  9
$DIMTOFL
 70
     1
  9
$DIMTVP
 40
0.0
  9
$DIMTIX
 70
     0
  9
$DIMSOXD
 70
     0
  9
$DIMSAH
 70
     0
  9
$DIMBLK1
  1

  9
$DIMBLK2
  1

  9
$LUNITS
 70
     2
  9
$LUPREC
 70
     4
  9
$SKETCHINC
 40
0.1
  9
$FILLETRAD
 40
0.0
  9
$AUNITS
 70
     0
  9
$AUPREC
 70
     0
  9
$MENU
  1
.
  9
$ELEVATION
 40
0.0
  9
$THICKNESS
 40
0.0
  9
$LIMCHECK
 70
     0
  9
$CHAMFERA
 40
0.2
  9
$CHAMFERB
 40
0.2
  9
$SKPOLY
 70
     0
  9
$TDCREATE
 40
2454063.446717835
  9
$TDUPDATE
 40
2460773.502967512
  9
$TDINDWG
 40
0.9275891204
  9
$TDUSRTIMER
 40
0.9275887616
  9
$USRTIMER
 70
     1
  9
$ANGBASE
 50
0.0
  9
$ANGDIR
 70
     0
  9
$PDMODE
 70
     0
  9
$PDSIZE
 40
0.0
  9
$PLINEWID
 40
0.0
  9
$COORDS
 70
     1
  9
$SPLFRAME
 70
     0
  9
$SPLINETYPE
 70
     6
  9
$SPLINESEGS
 70
     8
  9
$ATTDIA
 70
     0
  9
$ATTREQ
 70
     1
  9
$HANDLING
 70
     1
  9
$HANDSEED
  5
97AA
  9
$SURFTAB1
 70
     6
  9
$SURFTAB2
 70
     6
  9
$SURFTYPE
 70
     6
  9
$SURFU
 70
     6
  9
$SURFV
 70
     6
  9
$UCSNAME
  2

  9
$UCSORG
 10
0.0
 20
0.0
 30
0.0
  9
$UCSXDIR
 10
1.0
 20
0.0
 30
0.0
  9
$UCSYDIR
 10
0.0
 20
1.0
 30
0.0
  9
$USERI1
 70
     0
  9
$USERI2
 70
     0
  9
$USERI3
 70
     0
  9
$USERI4
 70
     0
  9
$USERI5
 70
     0
  9
$USERR1
 40
0.0
  9
$USERR2
 40
0.0
  9
$USERR3
 40
0.0
  9
$USERR4
 40
0.0
  9
$USERR5
 40
0.0
  9
$WORLDVIEW
 70
     1
  0
ENDSEC
  0
SECTION
  2
TABLES
  0
TABLE
  2
VPORT
 70
     1
  0
VPORT
  2
*ACTIVE
 70
     0
 10
0.0
 20
0.0
 11
1.0
 21
1.0
 12
227.143960138514
 22
281.7555431512799
 13
0.0
 23
0.0
 14
0.5
 24
0.5
 15
0.5
 25
0.5
 16
0.0
 26
0.0
 36
1.0
 17
51.99745649755143
 27
-186.755542213509
 37
-88.64089380188095
 40
317.8063237267897
 41
1.764004767580453
 42
50.0
 43
0.0
 44
0.0
 50
0.0
 51
0.0
 71
     0
 72
  1000
 73
     1
 74
     3
 75
     0
 76
     0
 77
     0
 78
     0
  0
ENDTAB
  0
TABLE
  2
LTYPE
 70
    18
  0
LTYPE
  2
CONTINUOUS
 70
     0
  3
Solid line
 72
    65
 73
     0
 40
0.0
  0
LTYPE
  2
ACAD_ISO08W100
 70
     0
  3
ISO long-dash short-dash ____ __ ____ __ ____ _
 72
    65
 73
     4
 40
36.0
 49
24.0
 49
-3.0
 49
6.0
 49
-3.0
  0
LTYPE
  2
HIDDEN2
 70
     0
  3
Hidden (.5x) _ _ _ _ _ _ _ _ _ _ _ _ _ _ _ _ _
 72
    65
 73
     2
 40
4.762499999999999
 49
3.175
 49
-1.5875
  0
LTYPE
  2
CENTER
 70
     0
  3
Center ____ _ ____ _ ____ _ ____ _ ____ _ ____
 72
    65
 73
     4
 40
2.0
 49
1.25
 49
-0.25
 49
0.25
 49
-0.25
  0
LTYPE
  2
CENTER2
 70
     0
  3
Center (.5x) ___ _ ___ _ ___ _ ___ _ ___ _ ___
 72
    65
 73
     4
 40
1.125
 49
0.75
 49
-0.125
 49
0.125
 49
-0.125
  0
LTYPE
  2
HIDDEN
 70
     0
  3
Hidden __ __ __ __ __ __ __ __ __ __ __ __ __ _
 72
    65
 73
     2
 40
0.375
 49
0.25
 49
-0.125
  0
LTYPE
  2
PHANTOM2
 70
     0
  3
Phantom (.5x) ___ _ _ ___ _ _ ___ _ _ ___ _ _
 72
    65
 73
     6
 40
1.25
 49
0.625
 49
-0.125
 49
0.125
 49
-0.125
 49
0.125
 49
-0.125
  0
LTYPE
  2
AM_ISO02W050
 70
     0
  3
__ __ __ __ __ __ __ __ __ __ __ __ __ __ __
 72
    65
 73
     2
 40
7.5
 49
6.0
 49
-1.5
  0
LTYPE
  2
AM_ISO08W050
 70
     0
  3
____ . ____ . ____ . ____ . ____ . ____ . ____
 72
    65
 73
     4
 40
18.0
 49
12.0
 49
-1.5
 49
3.0
 49
-1.5
  0
LTYPE
  2
AM_ISO09W050
 70
     0
  3
_____ . . _____ . . _____ . . ____ .. ____
 72
    65
 73
     6
 40
22.5
 49
12.0
 49
-1.5
 49
3.0
 49
-1.5
 49
3.0
 49
-1.5
  0
LTYPE
  2
AMCONSTR
 70
     0
  3
_______________________
 72
    65
 73
     2
 40
9999.0
 49
9999.0
 49
0.0
  0
LTYPE
  2
AM_ISO08W050X2
 70
     0
  3
__ . __ . __ . __ . __ . __
 72
    65
 73
     4
 40
9.0
 49
6.0
 49
-0.75
 49
1.5
 49
-0.75
  0
LTYPE
  2
AM_ISO02W050X2
 70
     0
  3
 _ _ _ _ _ _ _ _ _ _ _ _
 72
    65
 73
     2
 40
3.75
 49
3.0
 49
-0.75
  0
LTYPE
  2
AMZIGZAG
 70
     0
  3
/\/-/\/-/\/-/\/-/\/-/\/
 72
    65
 73
     2
 40
11.0001
 49
0.0001
 49
-11.0
  0
LTYPE
  2
AMZIGZAG2
 70
     0
  3
/\/-/\/-/\/-/\/-/\/-/\/
 72
    65
 73
     2
 40
0.4401
 49
0.0001
 49
-0.44
  0
LTYPE
  2
ACANSTGB
 70
     0
  3
__ . . __ . .
 72
    65
 73
     6
 40
0.35433070866
 49
0.15748031496
 49
-0.03937007874
 49
0.03937007874
 49
-0.03937007874
 49
0.03937007874
 49
-0.03937007874
  0
LTYPE
  2
ACANSTGL
 70
     0
  3
_ _ _ _ _
 72
    65
 73
     2
 40
0.11811023622
 49
0.07874015748
 49
-0.03937007874
  0
LTYPE
  2
CENTERX2
 70
     0
  3
Center (2x) ________  __  ________  __  _____
 72
    65
 73
     4
 40
101.6
 49
63.5
 49
-12.7
 49
12.7
 49
-12.7
  0
ENDTAB
  0
TABLE
  2
LAYER
 70
    24
  0
LAYER
  2
0
 70
     0
 62
     7
  6
CONTINUOUS
  0
LAYER
  2
DEFPOINTS
 70
     0
 62
     7
  6
CONTINUOUS
  0
LAYER
  2
CONTOUR
 70
     0
 62
     2
  6
CONTINUOUS
  0
LAYER
  2
BOWEL
 70
     2
 62
     4
  6
HIDDEN2
  0
LAYER
  2
CENTER
 70
     0
 62
     1
  6
CENTER
  0
LAYER
  2
MARK
 70
     0
 62
     6
  6
CONTINUOUS
  0
LAYER
  2
FRAME
 70
     0
 62
     9
  6
CONTINUOUS
  0
LAYER
  2
DIM
 70
     0
 62
     3
  6
CONTINUOUS
  0
LAYER
  2
SECTION
 70
     0
 62
     5
  6
CONTINUOUS
  0
LAYER
  2
PV-96D
 70
     2
 62
     7
  6
CONTINUOUS
  0
LAYER
  2
PH-96D
 70
     2
 62
     7
  6
CONTINUOUS
  0
LAYER
  2
本體外線
 70
     0
 62
     2
  6
CONTINUOUS
  0
LAYER
  2
中心線
 70
     0
 62
     1
  6
CENTER2
  0
LAYER
  2
2
 70
     0
 62
     7
  6
CONTINUOUS
  0
LAYER
  2
5
 70
     0
 62
     3
  6
CONTINUOUS
  0
LAYER
  2
\M+19557\M+19290
 70
     0
 62
     6
  6
CONTINUOUS
  0
LAYER
  2
\M+19557\M+19290\M+190FC
 70
     0
 62
     6
  6
CONTINUOUS
  0
LAYER
  2
\M+195B6\M+18E9A
 70
     0
 62
     6
  6
CONTINUOUS
  0
LAYER
  2
-
 70
     0
 62
     8
  6
CONTINUOUS
  0
LAYER
  2
DM
 70
     0
 62
     3
  6
CONTINUOUS
  0
LAYER
  2
\M+19AA4\M+191774
 70
     0
 62
     6
  6
CONTINUOUS
  0
LAYER
  2
_框線
 70
     0
 62
     9
  6
CONTINUOUS
  0
LAYER
  2
剖面線
 70
     0
 62
     5
  6
CONTINUOUS
  0
LAYER
  2
本體內線
 70
     0
 62
     4
  6
HIDDEN2
  0
ENDTAB
  0
TABLE
  2
STYLE
 70
    10
  0
STYLE
  2
STANDARD
 70
     0
 40
0.0
 41
1.0
 50
0.0
 71
     0
 42
0.2
  3
txt.shx
  4
bigfont.shx
  0
STYLE
  2

 70
     1
 40
0.0
 41
1.0
 50
0.0
 71
     0
 42
0.2
  3
ltypeshp.shx
  4

  0
STYLE
  2
TW
 70
     0
 40
0.0
 41
1.0
 50
0.0
 71
     0
 42
1.0
  3
txt.shx
  4
chineset.shx
  0
STYLE
  2
CN
 70
     0
 40
0.0
 41
1.0
 50
0.0
 71
     0
 42
6.0
  3
txt.shx
  4
gbcbig.shx
  0
STYLE
  2
A
 70
     0
 40
1.0
 41
1.0
 50
0.0
 71
     0
 42
2.5
  3
MS Mincho.ttf
  4

  0
STYLE
  2
JL
 70
     0
 40
6.0
 41
1.0
 50
0.0
 71
     0
 42
6.0
  3
MS Mincho.ttf
  4

  0
STYLE
  2

 70
     1
 40
0.0
 41
1.0
 50
0.0
 71
     0
 42
0.2
  3
genltshp.shx
  4

  0
STYLE
  2
ACANSTS
 70
     0
 40
1.0
 41
1.0
 50
0.0
 71
     0
 42
0.2
  3
romans.shx
  4
chineset.shx
  0
STYLE
  2
ACANSGDT
 70
     0
 40
0.0
 41
1.0
 50
0.0
 71
     0
 42
0.2
  3
amgdt.shx
  4

  0
STYLE
  2
LKK
 70
     0
 40
50.0
 41
1.5
 50
0.0
 71
     0
 42
50.0
  3
MS PGothic.ttf
  4

  0
ENDTAB
  0
TABLE
  2
VIEW
 70
     0
  0
ENDTAB
  0
TABLE
  2
UCS
 70
     0
  0
ENDTAB
  0
ENDSEC
  0
SECTION
  2
BLOCKS
  0
BLOCK
  8
0
  2
84722A
 70
     0
 10
0.0
 20
0.0
 30
0.0
  0
LINE
  5
8BE
  8
CONTOUR
 10
2268.035704829103
 20
2028.892792652738
 30
0.0
 11
2249.935704829104
 21
2028.892792652738
 31
0.0
  0
ARC
  5
8BF
  8
CONTOUR
 10
2254.485704829104
 20
2039.609489310099
 30
0.0
 40
8.0
 50
180.0
 51
200.3988217494654
  0
LINE
  5
8C0
  8
CONTOUR
 10
2249.935704829104
 20
2028.892792652738
 30
0.0
 11
2246.98739156949
 21
2036.821067128882
 31
0.0
  0
LINE
  5
8C1
  8
CONTOUR
 10
2246.485704829104
 20
2039.609489310099
 30
0.0
 11
2246.485704829104
 21
2042.942792652738
 31
0.0
  0
LINE
  5
8C2
  8
CONTOUR
 10
2249.935704829104
 20
2028.892792652738
 30
0.0
 11
2249.935704829104
 21
2025.444516644258
 31
0.0
  0
ARC
  5
8C3
  8
CONTOUR
 10
2247.485704829104
 20
2042.942792652738
 30
0.0
 40
1.0
 50
90.0
 51
180.0
  0
LINE
  5
8C4
  8
CONTOUR
 10
2268.035704829103
 20
2028.892792652738
 30
0.0
 11
2268.035704829103
 21
2025.444516644258
 31
0.0
  0
ARC
  5
8C5
  8
CONTOUR
 10
2258.985704829104
 20
2015.292792652738
 30
0.0
 40
13.6
 50
6.968493370260704
 51
173.0315066297402
  0
ARC
  5
8C6
  8
CONTOUR
 10
2258.985704829104
 20
2015.292792652738
 30
0.0
 40
13.6
 50
186.9684933702598
 51
353.0315066297402
  0
LINE
  5
8C7
  8
CONTOUR
 10
2250.835704829104
 20
1998.902785520065
 30
0.0
 11
2250.835704829104
 21
2004.405299828401
 31
0.0
  0
LINE
  5
8C8
  8
CONTOUR
 10
2267.135704829104
 20
1998.902785520066
 30
0.0
 11
2267.135704829104
 21
2004.405299828401
 31
0.0
  0
ARC
  5
8C9
  8
CONTOUR
 10
2258.985704829104
 20
1991.892792652737
 30
0.0
 40
10.75
 50
139.3004567779205
 51
210.77232476795
  0
ARC
  5
8CA
  8
CONTOUR
 10
2258.985704829104
 20
1991.892792652737
 30
0.0
 40
10.75
 50
329.22767523205
 51
40.69954322207952
  0
LINE
  5
8CB
  8
CONTOUR
 10
2268.222181430059
 20
1986.392792652737
 30
0.0
 11
2249.749228228149
 21
1986.392792652737
 31
0.0
  0
LINE
  5
8CC
  8
CONTOUR
 10
2267.135704829104
 20
1998.902785520065
 30
0.0
 11
2250.835704829104
 21
1998.902785520065
 31
0.0
  0
LINE
  5
8CD
  8
CONTOUR
 10
2270.485704829104
 20
2043.942792652738
 30
0.0
 11
2247.485704829104
 21
2043.942792652738
 31
0.0
  0
ARC
  5
8CE
  8
CONTOUR
 10
2263.485704829104
 20
2039.609489310099
 30
0.0
 40
8.0
 50
339.601178250543
 51
0.000000000000007
  0
LINE
  5
8CF
  8
CONTOUR
 10
2268.035704829104
 20
2028.892792652738
 30
0.0
 11
2270.984018088717
 21
2036.821067128882
 31
0.0
  0
LINE
  5
8D0
  8
CONTOUR
 10
2271.485704829104
 20
2039.609489310099
 30
0.0
 11
2271.485704829104
 21
2042.942792652738
 31
0.0
  0
ARC
  5
8D1
  8
CONTOUR
 10
2270.485704829104
 20
2042.942792652738
 30
0.0
 40
1.0
 50
0.000000000000007
 51
90.0
  0
LINE
  5
8D2
  8
CONTOUR
 10
2241.985704829104
 20
2013.642792652738
 30
0.0
 11
2275.985704829104
 21
2013.642792652738
 31
0.0
  0
LINE
  5
8D3
  8
CONTOUR
 10
2241.985704829104
 20
2016.942792652738
 30
0.0
 11
2275.985704829104
 21
2016.942792652738
 31
0.0
  0
LINE
  5
8D4
  8
CONTOUR
 10
2240.985704829104
 20
2014.642792652738
 30
0.0
 11
2240.985704829104
 21
2015.942792652738
 31
0.0
  0
ARC
  5
8D5
  8
CONTOUR
 10
2241.985704829104
 20
2014.642792652738
 30
0.0
 40
1.0
 50
180.0
 51
270.0
  0
ARC
  5
8D6
  8
CONTOUR
 10
2241.985704829104
 20
2015.942792652738
 30
0.0
 40
1.0
 50
90.0
 51
180.0
  0
LINE
  5
8D7
  8
CONTOUR
 10
2276.985704829104
 20
2014.642792652738
 30
0.0
 11
2276.985704829104
 21
2015.942792652738
 31
0.0
  0
ARC
  5
8D8
  8
CONTOUR
 10
2275.985704829104
 20
2014.642792652738
 30
0.0
 40
1.0
 50
270.0
 51
0.0
  0
ARC
  5
8D9
  8
CONTOUR
 10
2275.985704829104
 20
2015.942792652738
 30
0.0
 40
1.0
 50
0.0
 51
90.0000000000005
  0
ENDBLK
  8
0
  0
BLOCK
  8
0
  2
_OPEN30
 70
     0
 10
0.0
 20
0.0
 30
0.0
  0
LINE
  5
8DD
  8
0
  6
BYBLOCK
 62
     0
 10
-1.0
 20
0.26794919
 30
0.0
 11
0.0
 21
0.0
 31
0.0
  0
LINE
  5
8DE
  8
0
  6
BYBLOCK
 62
     0
 10
0.0
 20
0.0
 30
0.0
 11
-1.0
 21
-0.26794919
 31
0.0
  0
LINE
  5
8DF
  8
0
  6
BYBLOCK
 62
     0
 10
0.0
 20
0.0
 30
0.0
 11
-1.0
 21
0.0
 31
0.0
  0
ENDBLK
  8
0
  0
BLOCK
  8
0
  2
*U3
 70
     1
 10
0.0
 20
0.0
 30
0.0
  0
ENDBLK
  8
0
  0
BLOCK
  8
0
  2
*U4
 70
     1
 10
0.0
 20
0.0
 30
0.0
  0
ENDBLK
  8
0
  0
BLOCK
  8
0
  2
A$C501B6825
 70
     0
 10
0.0
 20
0.0
 30
0.0
  0
INSERT
  5
B2D
  8
CONTOUR
  2
84722A
 10
-2240.985707363333
 20
-1986.392794206717
 30
0.0
  0
ENDBLK
  8
0
  0
BLOCK
  8
0
  2
_DOTSMALL
 70
     0
 10
0.0
 20
0.0
 30
0.0
  0
POLYLINE
  5
19A0
  8
0
  6
BYBLOCK
 62
     0
 66
     1
 10
0.0
 20
0.0
 30
0.0
 70
     1
 40
0.5
 41
0.5
  0
VERTEX
  5
979B
  8
0
  6
BYBLOCK
 62
     0
 10
-0.0625
 20
0.0
 30
0.0
 42
1.0
  0
VERTEX
  5
979C
  8
0
  6
BYBLOCK
 62
     0
 10
0.0625
 20
0.0
 30
0.0
 42
1.0
  0
SEQEND
  5
97A9
  8
0
  6
BYBLOCK
 62
     0
  0
ENDBLK
  8
0
  0
BLOCK
  8
0
  2
84722
 70
     0
 10
0.0
 20
0.0
 30
0.0
  0
LINE
  5
1E90
  8
CONTOUR
 10
-156.6423078242061
 20
118.5615862273692
 30
0.0
 11
-165.1060339475227
 21
121.5540381546975
 31
0.0
  0
ARC
  5
1E91
  8
CONTOUR
 10
-170.6923078242063
 20
98.01158622736902
 30
0.0
 40
1.0
 50
180.0
 51
270.0
  0
LINE
  5
1E92
  8
CONTOUR
 10
-167.3590044815666
 20
97.01158622736925
 30
0.0
 11
-170.6923078242063
 21
97.01158622736902
 31
0.0
  0
ARC
  5
1E93
  8
CONTOUR
 10
-167.3590044815667
 20
105.0115862273692
 30
0.0
 40
8.0
 50
270.0
 51
290.3988217494716
  0
LINE
  5
1E94
  8
CONTOUR
 10
-156.6423078242061
 20
100.4615862273691
 30
0.0
 11
-164.5705823003495
 21
97.51327296775564
 31
0.0
  0
ARC
  5
1E95
  8
CONTOUR
 10
-170.6923078242063
 20
121.0115862273691
 30
0.0
 40
1.0
 50
90.0
 51
180.0
  0
LINE
  5
1E96
  8
CONTOUR
 10
-167.7727583284701
 20
122.0115862273692
 30
0.0
 11
-170.6923078242063
 21
122.0115862273691
 31
0.0
  0
ARC
  5
1E97
  8
CONTOUR
 10
-167.77275832847
 20
114.0115862273692
 30
0.0
 40
8.0
 50
70.52834094305844
 51
90.0
  0
LINE
  5
1E98
  8
CONTOUR
 10
-129.4423078242063
 20
96.86158622736916
 30
0.0
 11
-156.6423078242061
 21
96.86158622736916
 31
0.0
  0
LINE
  5
1E99
  8
CONTOUR
 10
-129.4423078242063
 20
122.1615862273691
 30
0.0
 11
-156.6423078242061
 21
122.1615862273691
 31
0.0
  0
LINE
  5
1E9A
  8
CONTOUR
 10
-129.4423078242061
 20
117.6615862273691
 30
0.0
 11
-129.4423078242063
 21
122.1615862273691
 31
0.0
  0
ARC
  5
1E9B
  8
CONTOUR
 10
-119.6423078242061
 20
109.5115862273691
 30
0.0
 40
10.75
 50
59.22767523205476
 51
130.6995432220788
  0
LINE
  5
1E9C
  8
CONTOUR
 10
-114.1423078242061
 20
118.7480628283247
 30
0.0
 11
-114.1423078242061
 21
100.2751096264138
 31
0.0
  0
ARC
  5
1E9D
  8
CONTOUR
 10
-119.6423078242061
 20
109.5115862273696
 30
0.0
 40
10.75
 50
229.3004567779212
 51
300.7723247679452
  0
LINE
  5
1E9E
  8
CONTOUR
 10
-126.6523006915344
 20
101.3615862273692
 30
0.0
 11
-129.4423078242055
 21
101.361586227369
 31
0.0
  0
LINE
  5
1E9F
  8
CONTOUR
 10
-129.4423078242061
 20
96.86158622736916
 30
0.0
 11
-129.4423078242061
 21
101.3615862273689
 31
0.0
  0
LINE
  5
1EA0
  8
CONTOUR
 10
-126.6523006915349
 20
117.6615862273691
 30
0.0
 11
-129.4423078242061
 21
117.6615862273691
 31
0.0
  0
LINE
  5
1EA1
  8
CONTOUR
 10
-142.0705708933461
 20
124.911586227369
 30
0.0
 11
-129.9423078242063
 21
124.911586227369
 31
0.0
  0
LINE
  5
1EA2
  8
CONTOUR
 10
-156.1423078242061
 20
124.911586227369
 30
0.0
 11
-144.0140447550663
 21
124.911586227369
 31
0.0
  0
LINE
  5
1EA3
  8
CONTOUR
 10
-156.6423078242061
 20
122.3115862273691
 30
0.0
 11
-129.4423078242063
 21
122.3115862273691
 31
0.0
  0
LINE
  5
1EA4
  8
CONTOUR
 10
-156.6423078242061
 20
122.3115862273691
 30
0.0
 11
-156.6423078242061
 21
124.411586227369
 31
0.0
  0
ARC
  5
1EA5
  8
CONTOUR
 10
-156.1423078242061
 20
124.411586227369
 30
0.0
 40
0.5
 50
90.0
 51
180.0
  0
LINE
  5
1EA6
  8
CONTOUR
 10
-129.4423078242063
 20
122.3115862273691
 30
0.0
 11
-129.4423078242063
 21
124.411586227369
 31
0.0
  0
ARC
  5
1EA7
  8
CONTOUR
 10
-129.9423078242063
 20
124.411586227369
 30
0.0
 40
0.5
 50
0.0
 51
90.0
  0
LINE
  5
1EA8
  8
CONTOUR
  6
CONTINUOUS
 10
-154.6423078242061
 20
94.0115862273693
 30
0.0
 11
-131.4423078242063
 21
94.0115862273693
 31
0.0
  0
LINE
  5
1EA9
  8
CONTOUR
  6
CONTINUOUS
 10
-156.6423078242062
 20
96.81158622736932
 30
0.0
 11
-129.4423078242063
 21
96.81158622736932
 31
0.0
  0
LINE
  5
1EAA
  8
CONTOUR
  6
CONTINUOUS
 10
-156.6423078242062
 20
96.0115862273693
 30
0.0
 11
-156.6423078242062
 21
96.81158622736932
 31
0.0
  0
ARC
  5
1EAB
  8
CONTOUR
  6
CONTINUOUS
 10
-154.6423078242061
 20
96.0115862273693
 30
0.0
 40
2.0
 50
180.0
 51
270.0
  0
LINE
  5
1EAC
  8
CONTOUR
  6
CONTINUOUS
 10
-129.4423078242063
 20
96.0115862273693
 30
0.0
 11
-129.4423078242063
 21
96.81158622736932
 31
0.0
  0
ARC
  5
1EAD
  8
CONTOUR
  6
CONTINUOUS
 10
-131.4423078242063
 20
96.0115862273693
 30
0.0
 40
2.0
 50
270.0
 51
0.0
  0
LINE
  5
1EAE
  8
CONTOUR
 10
-156.642307824206
 20
122.1615862273691
 30
0.0
 11
-156.642307824206
 21
96.86158622736916
 31
0.0
  0
ARC
  5
1EAF
  8
CONTOUR
 10
-143.0423511382205
 20
123.161586227369
 30
0.0
 40
0.8
 50
180.0
 51
0.0
  0
ARC
  5
1EB0
  8
CONTOUR
 10
-143.0436543144247
 20
136.6055672883137
 30
0.0
 40
1.669670154811487
 50
0.0
 51
180.0
  0
LINE
  5
1EB1
  8
CONTOUR
 10
-144.7133244692361
 20
136.6055672883137
 30
0.0
 11
-143.8423511382205
 21
123.161586227369
 31
0.0
  0
LINE
  5
1EB2
  8
CONTOUR
 10
-142.2423511382206
 20
123.161586227369
 30
0.0
 11
-141.3739841596132
 21
136.6055672883137
 31
0.0
  0
LINE
  5
1EB3
  8
CONTOUR
 10
-126.6523006915346
 20
117.6615862273694
 30
0.0
 11
-126.6523006915344
 21
101.3615862273692
 31
0.0
  0
ARC
  5
1EB4
  8
CONTOUR
 10
-118.55481499987
 20
109.511586227369
 30
0.0
 40
13.59999999999893
 50
143.1827457852956
 51
216.8172542147044
  0
ARC
  5
1EB5
  8
CONTOUR
 10
-166.7940318157262
 20
109.5115862273692
 30
0.0
 40
13.6000000000002
 50
318.2838198466958
 51
41.71618015330415
  0
LINE
  5
1EB6
  8
CONTOUR
 10
-171.6923078242063
 20
121.0115862273691
 30
0.0
 11
-171.6923078242063
 21
98.01158622736902
 31
0.0
  0
ENDBLK
  8
0
  0
BLOCK
  8
0
  2
22
 70
     0
 10
0.0
 20
0.0
 30
0.0
  0
ARC
  5
2001
  8
0
 10
992.0303278827951
 20
333.8369074230714
 30
0.0
 40
10.75
 50
139.3004066340999
 51
210.7103126651758
  0
ARC
  5
2002
  8
0
 10
992.030327882795
 20
333.8369074230714
 30
0.0
 40
10.75
 50
329.2896873348194
 51
40.69959336590014
  0
LINE
  5
2003
  8
0
 10
1006.030327882795
 20
382.3469074230713
 30
0.0
 11
978.030327882795
 21
382.3469074230713
 31
0.0
  0
LINE
  5
2004
  8
0
 10
980.5303278827953
 20
385.8469074230713
 30
0.0
 11
1003.530327882795
 21
385.8469074230716
 31
0.0
  0
LINE
  5
2005
  8
0
 10
1004.530327882795
 20
333.8469074230713
 30
0.0
 11
979.5303278827948
 21
333.8469074230713
 31
0.0
  0
LINE
  5
2006
  8
0
 39
1.0
 10
976.4303278827949
 20
357.3469074230713
 30
0.0
 11
1007.630327882795
 21
357.3469074230713
 31
0.0
  0
LINE
  5
2007
  8
0
 10
983.0303340177668
 20
370.8469074230716
 30
0.0
 11
980.1506205909761
 21
378.7582312848085
 31
0.0
  0
LINE
  5
2008
  8
0
 10
979.5303278827951
 20
384.8469074230711
 30
0.0
 11
979.5303278827951
 21
381.8469074230713
 31
0.0
  0
ARC
  5
2009
  8
0
 10
980.5303278827953
 20
384.8469074230713
 30
0.0
 40
1.0
 50
90.0
 51
180.0
  0
ARC
  5
200A
  8
0
 10
987.5303278827951
 20
381.8469074230713
 30
0.0
 40
8.0
 50
180.0
 51
202.7110849360662
  0
LINE
  5
200B
  8
0
 10
983.8803340177669
 20
340.8469074230716
 30
0.0
 11
983.8803340177669
 21
343.8469074230713
 31
0.0
  0
LINE
  5
200C
  8
0
 10
1001.030321747823
 20
370.8469074230713
 30
0.0
 11
1003.910035174614
 21
378.7582312848085
 31
0.0
  0
LINE
  5
200D
  8
0
 10
1004.530327882795
 20
384.8469074230711
 30
0.0
 11
1004.530327882795
 21
381.8469074230713
 31
0.0
  0
ARC
  5
200E
  8
0
 10
1003.530327882795
 20
384.8469074230711
 30
0.0
 40
1.0
 50
0.0
 51
90.0
  0
ARC
  5
200F
  8
0
 10
996.5303278827951
 20
381.8469074230713
 30
0.0
 40
8.0
 50
337.2889150639334
 51
0.0
  0
LINE
  5
2010
  8
0
 10
1000.180321747823
 20
340.8469074230713
 30
0.0
 11
1000.180321747823
 21
343.8469074230713
 31
0.0
  0
LINE
  5
2011
  8
0
 10
982.7879039583042
 20
328.3469074230716
 30
0.0
 11
1001.272751807286
 21
328.3469074230711
 31
0.0
  0
LINE
  5
2012
  8
0
 10
979.380327882795
 20
343.8469074230713
 30
0.0
 11
983.8803340177669
 21
343.8469074230713
 31
0.0
  0
LINE
  5
2013
  8
0
 10
979.3803278827951
 20
370.8469074230713
 30
0.0
 11
983.0303340177668
 21
370.8469074230713
 31
0.0
  0
LINE
  5
2014
  8
0
 10
1004.680327882795
 20
370.8469074230713
 30
0.0
 11
1004.680327882795
 21
343.8469074230713
 31
0.0
  0
LINE
  5
2015
  8
0
 10
979.3803278827951
 20
370.8469074230713
 30
0.0
 11
979.380327882795
 21
343.8469074230713
 31
0.0
  0
LINE
  5
2016
  8
0
 10
1000.180321747823
 20
343.8469074230713
 30
0.0
 11
1004.680327882795
 21
343.8469074230713
 31
0.0
  0
LINE
  5
2017
  8
0
 10
1001.030321747823
 20
370.8469074230713
 30
0.0
 11
1004.680327882795
 21
370.8469074230713
 31
0.0
  0
LINE
  5
2018
  8
0
 10
1000.180321747823
 20
340.8469074230713
 30
0.0
 11
983.8803340177667
 21
340.8469074230713
 31
0.0
  0
LINE
  5
2019
  8
0
 10
1001.030321747823
 20
370.8469074230713
 30
0.0
 11
983.0303340177669
 21
370.8469074230713
 31
0.0
  0
ARC
  5
201A
  8
0
 10
992.0303278827948
 20
338.9267296452938
 30
0.0
 40
9.520007844793556
 50
31.1195167813697
 51
148.8804832186244
  0
LINE
  5
201B
  8
0
 10
975.4303278827949
 20
357.3469074230713
 30
0.0
 11
1020.430327882795
 21
357.3469074230713
 31
0.0
  0
LINE
  5
201C
  8
0
 10
1017.930327882794
 20
340.3469074230713
 30
0.0
 11
1007.430327882795
 21
340.3469074230713
 31
0.0
  0
LINE
  5
201D
  8
0
 10
1017.930327882795
 20
374.3469074230716
 30
0.0
 11
1007.430327882794
 21
374.3469074230713
 31
0.0
  0
LINE
  5
201E
  8
0
 10
1007.430327882795
 20
370.1469074230715
 30
0.0
 11
1007.430327882795
 21
344.5469074230716
 31
0.0
  0
LINE
  5
201F
  8
0
 10
1007.430327882794
 20
358.3186443539314
 30
0.0
 11
1007.430327882795
 21
370.4469074230713
 31
0.0
  0
LINE
  5
2020
  8
0
 10
1004.830327882795
 20
343.7469074230712
 30
0.0
 11
1004.830327882795
 21
370.9469074230713
 31
0.0
  0
LINE
  5
2021
  8
0
 10
1005.930327882795
 20
372.8469074230713
 30
0.0
 11
1005.930327882795
 21
370.9469074230713
 31
0.0
  0
LINE
  5
2022
  8
0
 10
1004.830327882795
 20
370.9469074230713
 30
0.0
 11
1006.930327882795
 21
370.9469074230713
 31
0.0
  0
ARC
  5
2023
  8
0
 10
1006.930327882795
 20
370.4469074230713
 30
0.0
 40
0.5
 50
0.0
 51
90.0
  0
ARC
  5
2024
  8
0
 10
1007.430327882794
 20
372.8469074230713
 30
0.0
 40
1.5
 50
90.0
 51
180.0
  0
LINE
  5
2025
  8
0
 10
1004.680327882795
 20
365.6469074230714
 30
0.0
 11
1004.830327882795
 21
365.6469074230713
 31
0.0
  0
ARC
  5
2026
  8
0
 10
1007.430327882795
 20
341.8469074230713
 30
0.0
 40
1.5
 50
180.0
 51
270.0
  0
LINE
  5
2027
  8
0
 10
1004.830327882795
 20
343.7469074230712
 30
0.0
 11
1006.930327882794
 21
343.7469074230712
 31
0.0
  0
LINE
  5
2028
  8
0
 10
1007.430327882794
 20
344.2469074230712
 30
0.0
 11
1007.430327882795
 21
358.3186443539314
 31
0.0
  0
ARC
  5
2029
  8
0
 10
1006.930327882794
 20
344.2469074230712
 30
0.0
 40
0.5
 50
270.0
 51
0.0
  0
LINE
  5
202A
  8
0
 10
1005.930327882795
 20
343.7469074230712
 30
0.0
 11
1005.930327882795
 21
341.8469074230713
 31
0.0
  0
LINE
  5
202B
  8
0
 10
1004.680327882795
 20
349.0469074230714
 30
0.0
 11
1004.830327882795
 21
349.0469074230714
 31
0.0
  0
LINE
  5
202C
  8
0
 10
1004.680327882795
 20
356.3469074230713
 30
0.0
 11
1004.830327882795
 21
356.3469074230713
 31
0.0
  0
LINE
  5
202D
  8
0
 10
1004.680327882795
 20
358.3469074230713
 30
0.0
 11
1004.830327882795
 21
358.3469074230713
 31
0.0
  0
LINE
  5
202E
  8
0
 10
1019.430327882795
 20
372.8469074230711
 30
0.0
 11
1019.430327882795
 21
341.8469074230713
 31
0.0
  0
ARC
  5
202F
  8
0
 10
1017.930327882795
 20
372.8469074230716
 30
0.0
 40
1.5
 50
359.9999999999935
 51
90.0
  0
ARC
  5
2030
  8
0
 10
1017.930327882794
 20
341.8469074230713
 30
0.0
 40
1.5
 50
270.0
 51
359.9999999999935
  0
LINE
  5
2031
  8
0
 10
979.1803278827945
 20
370.846907423071
 30
0.0
 11
979.1803278827945
 21
343.8469074230712
 31
0.0
  0
LINE
  5
2032
  8
0
 10
976.3803278827945
 20
368.946907423071
 30
0.0
 11
976.3803278827945
 21
345.8469074230712
 31
0.0
  0
ARC
  5
2033
  8
0
 10
978.3803278827945
 20
368.846907423071
 30
0.0
 40
2.0
 50
90.0
 51
180.0
  0
LINE
  5
2034
  8
0
 10
978.3803278827945
 20
370.846907423071
 30
0.0
 11
979.1803278827945
 21
370.846907423071
 31
0.0
  0
ARC
  5
2035
  8
0
 10
978.3803278827945
 20
345.8469074230712
 30
0.0
 40
2.0
 50
180.0
 51
270.0
  0
LINE
  5
2036
  8
0
 10
978.3803278827945
 20
343.8469074230712
 30
0.0
 11
979.1803278827945
 21
343.8469074230712
 31
0.0
  0
ENDBLK
  8
0
  0
BLOCK
  8
0
  2
46
 70
     0
 10
0.0
 20
0.0
 30
0.0
  0
LINE
  5
20EF
  8
0
 39
30.0
 10
956.5557130314842
 20
443.9052698692281
 30
0.0
 11
956.5557130314698
 21
452.2291451001558
 31
0.0
  0
LINE
  5
20F0
  8
0
 39
30.0
 10
956.0557130314835
 20
444.2284668637585
 30
0.0
 11
956.0557130314698
 21
452.2291451001549
 31
0.0
  0
LINE
  5
20F1
  8
0
 39
30.0
 10
956.5557130314698
 20
460.5530203310834
 30
0.0
 11
956.5557130314698
 21
452.2291451001558
 31
0.0
  0
LINE
  5
20F2
  8
0
 39
30.0
 10
956.0557130314698
 20
460.2284668637594
 30
0.0
 11
956.0557130314698
 21
452.2291451001558
 31
0.0
  0
LINE
  5
20F3
  8
0
 39
44.99954549554504
 10
976.0557130314698
 20
461.1501427334071
 30
0.0
 11
974.0557130314698
 21
461.150142733407
 31
0.0
  0
LINE
  5
20F4
  8
0
 39
44.99954549554504
 10
976.0557130314698
 20
453.150142734287
 30
0.0
 11
974.0557130314698
 21
453.150142734287
 31
0.0
  0
LINE
  5
20F5
  8
0
 39
44.99954549554504
 10
976.0557130314698
 20
461.1501427334071
 30
0.0
 11
976.0557130314698
 21
453.150142734287
 31
0.0
  0
LINE
  5
20F6
  8
0
 39
44.99954549554504
 10
976.0557130314698
 20
443.3081474669045
 30
0.0
 11
976.0557130314698
 21
451.3081474660245
 31
0.0
  0
LINE
  5
20F7
  8
0
 39
44.99954549554504
 10
976.0557130314698
 20
451.3081474660244
 30
0.0
 11
974.0557130314698
 21
451.3081474660246
 31
0.0
  0
LINE
  5
20F8
  8
0
 39
44.99954549554504
 10
976.0557130314698
 20
443.3081474669045
 30
0.0
 11
974.0557130314698
 21
443.3081474669045
 31
0.0
  0
LINE
  5
20F9
  8
0
 10
971.065713031483
 20
443.7365838698451
 30
0.0
 11
956.5557130314842
 21
443.9052698692281
 31
0.0
  0
LINE
  5
20FA
  8
0
 10
971.0657130314685
 20
460.7217063304914
 30
0.0
 11
956.5557130314698
 21
460.5530203310834
 31
0.0
  0
LINE
  5
20FB
  8
0
 10
956.0557130314835
 20
444.2284668637585
 30
0.0
 11
956.5557130314835
 21
444.2284668637594
 31
0.0
  0
LINE
  5
20FC
  8
0
 10
956.0557130314698
 20
460.2284668637594
 30
0.0
 11
956.5557130314698
 21
460.2284668637594
 31
0.0
  0
LINE
  5
20FD
  8
0
 39
30.0
 10
971.0557130314698
 20
461.7284668637597
 30
0.0
 11
971.0557130314698
 21
442.7284668637595
 31
0.0
  0
LINE
  5
20FE
  8
0
 10
978.5557130314698
 20
460.7284668637596
 30
0.0
 11
978.5557130314698
 21
443.7284668637595
 31
0.0
  0
LINE
  5
20FF
  8
0
 10
971.0557130314698
 20
461.7284668637596
 30
0.0
 11
977.5557130314698
 21
461.7284668637596
 31
0.0
  0
LINE
  5
2100
  8
0
 10
971.0557130314698
 20
442.7284668637595
 30
0.0
 11
977.5557130314698
 21
442.7284668637595
 31
0.0
  0
ARC
  5
2101
  8
0
 10
977.5557130314698
 20
460.7284668637596
 30
0.0
 40
1.0
 50
0.0
 51
90.0
  0
ARC
  5
2102
  8
0
 10
977.5557130314698
 20
443.7284668637595
 30
0.0
 40
1.0
 50
270.0
 51
0.0
  0
LINE
  5
2103
  8
0
 39
36.0
 10
955.0557130314698
 20
452.2284668637594
 30
0.0
 11
995.4557130314698
 21
452.2284668637595
 31
0.0
  0
LINE
  5
2104
  8
0
 10
977.5557130314698
 20
461.7284668637596
 30
0.0
 11
977.5557130314698
 21
442.7284668637595
 31
0.0
  0
LINE
  5
2105
  8
0
 10
977.5557130314698
 20
452.2284668637594
 30
0.0
 11
971.0557130314698
 21
452.2284668637594
 31
0.0
  0
LINE
  5
2106
  8
0
 10
994.5557130314696
 20
442.9860429392687
 30
0.0
 11
994.5557130314701
 21
461.4708907882502
 31
0.0
  0
LINE
  5
2107
  8
0
 10
982.0557130314696
 20
444.0784729987314
 30
0.0
 11
982.0557130314698
 21
460.3784607287879
 31
0.0
  0
ARC
  5
2108
  8
0
 10
989.0657130314698
 20
452.2284668637596
 30
0.0
 40
10.75
 50
229.3004066340998
 51
300.7103126651754
  0
LINE
  5
2109
  8
0
 10
982.0557130314696
 20
444.0784729987314
 30
0.0
 11
978.5557130314698
 21
444.0784729987314
 31
0.0
  0
ARC
  5
210A
  8
0
 10
989.0657130314698
 20
452.2284668637595
 30
0.0
 40
10.75
 50
59.28968733481734
 51
130.6995933659001
  0
LINE
  5
210B
  8
0
 10
982.0557130314698
 20
460.3784607287879
 30
0.0
 11
978.5557130314698
 21
460.3784607287879
 31
0.0
  0
LINE
  5
210C
  8
0
 39
44.99954549554504
 10
974.0557130314698
 20
461.1501427334071
 30
0.0
 11
974.0557130314698
 21
453.150142734287
 31
0.0
  0
LINE
  5
210D
  8
0
 39
44.99954549554504
 10
974.0557130314698
 20
443.3081474669045
 30
0.0
 11
974.0557130314698
 21
451.3081474660245
 31
0.0
  0
ENDBLK
  8
0
  0
BLOCK
  8
0
  2
GENAXEH
 70
     0
 10
0.0
 20
0.0
 30
0.0
  0
LINE
  5
523B
  8
0
 10
-1.0
 20
0.0
 30
0.0
 11
1.0
 21
0.0
 31
0.0
  0
ENDBLK
  8
0
  0
BLOCK
  8
0
  2
XXX
 70
     0
 10
0.0
 20
0.0
 30
0.0
  0
LINE
  5
531B
  8
CONTOUR
 62
     5
 10
226.5884055835349
 20
57.70000000000011
 30
0.0
 11
234.9884055835347
 21
57.70000000000012
 31
0.0
  0
LINE
  5
531C
  8
CONTOUR
 62
     5
 10
235.2884055835347
 20
57.40000000000013
 30
0.0
 11
234.9884055835347
 21
57.70000000000012
 31
0.0
  0
LINE
  5
531D
  8
CONTOUR
 62
     5
 10
226.2884055835349
 20
57.40000000000011
 30
0.0
 11
226.5884055835349
 21
57.70000000000011
 31
0.0
  0
LINE
  5
531E
  8
CONTOUR
 62
     5
 10
226.2884055835349
 20
57.40000000000011
 30
0.0
 11
226.2884055835349
 21
56.29999999999997
 31
0.0
  0
LINE
  5
531F
  8
CONTOUR
 62
     5
 10
235.2884055835347
 20
57.40000000000013
 30
0.0
 11
235.2884055835347
 21
56.29999999999997
 31
0.0
  0
LINE
  5
5320
  8
CONTOUR
 62
     5
 10
234.9884055835347
 20
55.99999999999997
 30
0.0
 11
235.2884055835347
 21
56.29999999999997
 31
0.0
  0
LINE
  5
5321
  8
CONTOUR
 62
     5
 10
226.5884055835349
 20
55.99999999999997
 30
0.0
 11
234.9884055835347
 21
55.99999999999997
 31
0.0
  0
LINE
  5
5322
  8
CONTOUR
 62
     5
 10
226.2884055835349
 20
56.29999999999997
 30
0.0
 11
226.5884055835349
 21
55.99999999999997
 31
0.0
  0
ARC
  5
5323
  8
CONTOUR
 62
     5
 10
230.7884055835349
 20
55.60000000000274
 30
0.0
 40
3.85
 50
152.1257574874966
 51
174.0364298817204
  0
ARC
  5
5324
  8
CONTOUR
 62
     5
 10
230.7884055835347
 20
55.60000000000274
 30
0.0
 40
3.85
 50
5.963570118279727
 51
27.87424251250398
  0
LINE
  5
5325
  8
CONTOUR
 62
     5
 10
227.3850983684852
 20
57.40000000000012
 30
0.0
 11
234.1917127985844
 21
57.40000000000013
 31
0.0
  0
LINE
  5
5326
  8
CONTOUR
 62
     5
 10
234.1917127985844
 20
57.40000000000013
 30
0.0
 11
234.4917127985844
 21
57.70000000000013
 31
0.0
  0
LINE
  5
5327
  8
CONTOUR
 62
     5
 10
227.3850983684852
 20
57.40000000000013
 30
0.0
 11
227.0850983684852
 21
57.70000000000012
 31
0.0
  0
ENDBLK
  8
0
  0
BLOCK
  8
0
  2
OOO
 70
     0
 10
0.0
 20
0.0
 30
0.0
  0
ARC
  5
532B
  8
0
 10
238.7499107172525
 20
55.60000000000288
 30
0.0
 40
3.85
 50
110.7613618052299
 51
249.2386381947701
  0
ARC
  5
532C
  8
0
 10
238.7499107172525
 20
55.60000000000288
 30
0.0
 40
3.85
 50
290.7613618052299
 51
69.23863819477006
  0
LINE
  5
532D
  8
0
 10
237.7499107172525
 20
59.20000000000288
 30
0.0
 11
237.7499107172525
 21
52.00000000000287
 31
0.0
  0
LINE
  5
532E
  8
0
 10
239.7499107172526
 20
59.20000000000288
 30
0.0
 11
239.7499107172525
 21
52.00000000000288
 31
0.0
  0
LINE
  5
532F
  8
0
 10
237.3851763108563
 20
59.20000000000263
 30
0.0
 11
240.1146451236486
 21
59.2000000000027
 31
0.0
  0
LINE
  5
5330
  8
0
 10
237.3851763108563
 20
52.00000000000313
 30
0.0
 11
240.1146451236486
 21
52.00000000000306
 31
0.0
  0
ENDBLK
  8
0
  0
BLOCK
  8
0
  2
_NONE
 70
     0
 10
0.0
 20
0.0
 30
0.0
  0
ENDBLK
  8
0
  0
BLOCK
  8
0
  2
*D14
 70
     1
 10
0.0
 20
0.0
 30
0.0
  0
LINE
  5
6F3D
  8
\M+19557\M+19290\M+190FC
  6
BYBLOCK
 10
51.19995667620159
 20
63.42496286531575
 30
0.0
 11
51.19995667620159
 21
66.898350910877
 31
0.0
  0
LINE
  5
6F3E
  8
\M+19557\M+19290\M+190FC
  6
BYBLOCK
 10
43.19995667620159
 20
62.62496286531575
 30
0.0
 11
43.19995667620159
 21
66.898350910877
 31
0.0
  0
LINE
  5
6F3F
  8
\M+19557\M+19290\M+190FC
  6
BYBLOCK
 10
49.94995667620159
 20
66.473350910877
 30
0.0
 11
44.44995667620159
 21
66.473350910877
 31
0.0
  0
INSERT
  5
6F40
  8
\M+19557\M+19290\M+190FC
  2
_OPEN30
 10
51.19995667620159
 20
66.473350910877
 30
0.0
 41
1.25
 42
1.25
 43
1.25
  0
INSERT
  5
6F41
  8
\M+19557\M+19290\M+190FC
  2
_OPEN30
 10
43.19995667620159
 20
66.473350910877
 30
0.0
 41
1.25
 42
1.25
 43
1.25
 50
180.0
  0
TEXT
  5
6F42
  8
\M+19557\M+19290\M+190FC
  6
CONTINUOUS
 62
     3
 10
46.78329000953492
 20
66.898350910877
 30
0.0
 40
1.25
  1
8
  0
POINT
  5
6F43
  8
DEFPOINTS
 62
     0
 10
51.19995667620159
 20
62.99996286531575
 30
0.0
  0
POINT
  5
6F44
  8
DEFPOINTS
 62
     0
 10
43.19995667620159
 20
62.19996286531575
 30
0.0
  0
POINT
  5
6F45
  8
DEFPOINTS
 62
     0
 10
43.19995667620159
 20
66.473350910877
 30
0.0
  0
ENDBLK
  8
0
  0
BLOCK
  8
0
  2
*D15
 70
     1
 10
0.0
 20
0.0
 30
0.0
  0
LINE
  5
6F49
  8
\M+19557\M+19290\M+190FC
  6
BYBLOCK
 10
43.19995667620159
 20
62.62496286531575
 30
0.0
 11
43.19995667620159
 21
72.40078305711772
 31
0.0
  0
LINE
  5
6F4A
  8
\M+19557\M+19290\M+190FC
  6
BYBLOCK
 10
96.79995667620157
 20
63.22496286531574
 30
0.0
 11
96.79995667620157
 21
72.40078305711772
 31
0.0
  0
LINE
  5
6F4B
  8
\M+19557\M+19290\M+190FC
  6
BYBLOCK
 10
44.44995667620159
 20
71.97578305711772
 30
0.0
 11
95.54995667620157
 21
71.97578305711772
 31
0.0
  0
INSERT
  5
6F4C
  8
\M+19557\M+19290\M+190FC
  2
_OPEN30
 10
43.19995667620159
 20
71.97578305711772
 30
0.0
 41
1.25
 42
1.25
 43
1.25
 50
180.0
  0
INSERT
  5
6F4D
  8
\M+19557\M+19290\M+190FC
  2
_OPEN30
 10
96.79995667620157
 20
71.97578305711772
 30
0.0
 41
1.25
 42
1.25
 43
1.25
  0
TEXT
  5
6F4E
  8
\M+19557\M+19290\M+190FC
  6
CONTINUOUS
 62
     3
 10
68.12495667620158
 20
72.40078305711772
 30
0.0
 40
1.25
  1
53.6
  0
POINT
  5
6F4F
  8
DEFPOINTS
 62
     0
 10
43.19995667620159
 20
62.19996286531575
 30
0.0
  0
POINT
  5
6F50
  8
DEFPOINTS
 62
     0
 10
96.79995667620157
 20
62.79996286531574
 30
0.0
  0
POINT
  5
6F51
  8
DEFPOINTS
 62
     0
 10
96.79995667620157
 20
71.97578305711772
 30
0.0
  0
ENDBLK
  8
0
  0
BLOCK
  8
0
  2
*D16
 70
     1
 10
0.0
 20
0.0
 30
0.0
  0
LINE
  5
6F55
  8
\M+19557\M+19290\M+190FC
  6
BYBLOCK
 10
42.77495667620159
 20
61.99996286531576
 30
0.0
 11
38.77132109528243
 21
61.99996286531576
 31
0.0
  0
LINE
  5
6F56
  8
\M+19557\M+19290\M+190FC
  6
BYBLOCK
 10
42.77495667620159
 20
57.99996286531574
 30
0.0
 11
38.77132109528243
 21
57.99996286531574
 31
0.0
  0
LINE
  5
6F57
  8
\M+19557\M+19290\M+190FC
  6
BYBLOCK
 10
39.19632109528243
 20
60.74996286531576
 30
0.0
 11
39.19632109528243
 21
59.24996286531574
 31
0.0
  0
INSERT
  5
6F58
  8
\M+19557\M+19290\M+190FC
  2
_OPEN30
 10
39.19632109528243
 20
61.99996286531576
 30
0.0
 41
1.25
 42
1.25
 43
1.25
 50
90.0
  0
INSERT
  5
6F59
  8
\M+19557\M+19290\M+190FC
  2
_OPEN30
 10
39.19632109528243
 20
57.99996286531574
 30
0.0
 41
1.25
 42
1.25
 43
1.25
 50
270.0
  0
TEXT
  5
6F5A
  8
\M+19557\M+19290\M+190FC
  6
CONTINUOUS
 62
     3
 10
38.77132109528242
 20
58.95829619864909
 30
0.0
 40
1.25
  1
\U+22054
 50
90.0
  0
POINT
  5
6F5B
  8
DEFPOINTS
 62
     0
 10
43.19995667620159
 20
61.99996286531576
 30
0.0
  0
POINT
  5
6F5C
  8
DEFPOINTS
 62
     0
 10
43.19995667620159
 20
57.99996286531574
 30
0.0
  0
POINT
  5
6F5D
  8
DEFPOINTS
 62
     0
 10
39.19632109528243
 20
57.99996286531574
 30
0.0
  0
ENDBLK
  8
0
  0
BLOCK
  8
0
  2
*D17
 70
     1
 10
0.0
 20
0.0
 30
0.0
  0
LINE
  5
6F61
  8
\M+19557\M+19290\M+190FC
  6
BYBLOCK
 10
96.79995667620157
 20
63.22496286531574
 30
0.0
 11
96.79995667620157
 21
66.898350910877
 31
0.0
  0
LINE
  5
6F62
  8
\M+19557\M+19290\M+190FC
  6
BYBLOCK
 10
89.79995667620156
 20
62.92496286531573
 30
0.0
 11
89.79995667620156
 21
66.898350910877
 31
0.0
  0
LINE
  5
6F63
  8
\M+19557\M+19290\M+190FC
  6
BYBLOCK
 10
95.54995667620157
 20
66.473350910877
 30
0.0
 11
91.04995667620156
 21
66.473350910877
 31
0.0
  0
INSERT
  5
6F64
  8
\M+19557\M+19290\M+190FC
  2
_OPEN30
 10
96.79995667620157
 20
66.473350910877
 30
0.0
 41
1.25
 42
1.25
 43
1.25
  0
INSERT
  5
6F65
  8
\M+19557\M+19290\M+190FC
  2
_OPEN30
 10
89.79995667620156
 20
66.473350910877
 30
0.0
 41
1.25
 42
1.25
 43
1.25
 50
180.0
  0
TEXT
  5
6F66
  8
\M+19557\M+19290\M+190FC
  6
CONTINUOUS
 62
     3
 10
92.88329000953489
 20
66.898350910877
 30
0.0
 40
1.25
  1
7
  0
POINT
  5
6F67
  8
DEFPOINTS
 62
     0
 10
96.79995667620157
 20
62.79996286531574
 30
0.0
  0
POINT
  5
6F68
  8
DEFPOINTS
 62
     0
 10
89.79995667620156
 20
62.49996286531574
 30
0.0
  0
POINT
  5
6F69
  8
DEFPOINTS
 62
     0
 10
89.79995667620156
 20
66.473350910877
 30
0.0
  0
ENDBLK
  8
0
  0
BLOCK
  8
0
  2
*D18
 70
     1
 10
0.0
 20
0.0
 30
0.0
  0
LINE
  5
6F6D
  8
\M+19557\M+19290\M+190FC
  6
BYBLOCK
 10
43.57495667620159
 20
62.99996286531575
 30
0.0
 11
33.72234223462443
 21
62.99996286531575
 31
0.0
  0
LINE
  5
6F6E
  8
\M+19557\M+19290\M+190FC
  6
BYBLOCK
 10
43.57495667620159
 20
56.99996286531575
 30
0.0
 11
33.72234223462443
 21
56.99996286531575
 31
0.0
  0
LINE
  5
6F6F
  8
\M+19557\M+19290\M+190FC
  6
BYBLOCK
 10
34.14734223462444
 20
61.74996286531575
 30
0.0
 11
34.14734223462444
 21
58.24996286531575
 31
0.0
  0
LINE
  5
6F70
  8
\M+19557\M+19290\M+190FC
  6
BYBLOCK
 10
34.14734223462444
 20
56.99996286531575
 30
0.0
 11
34.14734223462443
 21
46.35829619864909
 31
0.0
  0
INSERT
  5
6F71
  8
\M+19557\M+19290\M+190FC
  2
_OPEN30
 10
34.14734223462444
 20
62.99996286531575
 30
0.0
 41
1.25
 42
1.25
 43
1.25
 50
90.0
  0
INSERT
  5
6F72
  8
\M+19557\M+19290\M+190FC
  2
_OPEN30
 10
34.14734223462444
 20
56.99996286531575
 30
0.0
 41
1.25
 42
1.25
 43
1.25
 50
270.0
  0
TEXT
  5
6F73
  8
\M+19557\M+19290\M+190FC
  6
CONTINUOUS
 62
     3
 10
33.72234223462442
 20
46.7832961986491
 30
0.0
 40
1.25
  1
M6x0.75P
 50
90.0
  0
POINT
  5
6F74
  8
DEFPOINTS
 62
     0
 10
43.99995667620158
 20
62.99996286531575
 30
0.0
  0
POINT
  5
6F75
  8
DEFPOINTS
 62
     0
 10
43.99995667620158
 20
56.99996286531575
 30
0.0
  0
POINT
  5
6F76
  8
DEFPOINTS
 62
     0
 10
34.14734223462444
 20
56.99996286531575
 30
0.0
  0
ENDBLK
  8
0
  0
BLOCK
  8
0
  2
*D19
 70
     1
 10
0.0
 20
0.0
 30
0.0
  0
LINE
  5
6F7A
  8
\M+19557\M+19290\M+190FC
  6
BYBLOCK
 10
97.12495667620155
 20
62.49996286531574
 30
0.0
 11
102.8994903346062
 21
62.49996286531574
 31
0.0
  0
LINE
  5
6F7B
  8
\M+19557\M+19290\M+190FC
  6
BYBLOCK
 10
97.12495667620159
 20
57.49996286531574
 30
0.0
 11
102.8994903346062
 21
57.49996286531574
 31
0.0
  0
LINE
  5
6F7C
  8
\M+19557\M+19290\M+190FC
  6
BYBLOCK
 10
102.4744903346062
 20
61.24996286531574
 30
0.0
 11
102.4744903346062
 21
58.74996286531574
 31
0.0
  0
LINE
  5
6F7D
  8
\M+19557\M+19290\M+190FC
  6
BYBLOCK
 10
102.4744903346062
 20
57.49996286531574
 30
0.0
 11
102.4744903346062
 21
48.10829619864907
 31
0.0
  0
INSERT
  5
6F7E
  8
\M+19557\M+19290\M+190FC
  2
_OPEN30
 10
102.4744903346062
 20
62.49996286531574
 30
0.0
 41
1.25
 42
1.25
 43
1.25
 50
90.0
  0
INSERT
  5
6F7F
  8
\M+19557\M+19290\M+190FC
  2
_OPEN30
 10
102.4744903346062
 20
57.49996286531574
 30
0.0
 41
1.25
 42
1.25
 43
1.25
 50
270.0
  0
TEXT
  5
6F80
  8
\M+19557\M+19290\M+190FC
  6
CONTINUOUS
 62
     3
 10
102.0494903346062
 20
48.53329619864909
 30
0.0
 40
1.25
  1
M5x0.8P
 50
90.0
  0
POINT
  5
6F81
  8
DEFPOINTS
 62
     0
 10
96.69995667620155
 20
62.49996286531574
 30
0.0
  0
POINT
  5
6F82
  8
DEFPOINTS
 62
     0
 10
96.6999566762016
 20
57.49996286531574
 30
0.0
  0
POINT
  5
6F83
  8
DEFPOINTS
 62
     0
 10
102.4744903346062
 20
57.49996286531574
 30
0.0
  0
ENDBLK
  8
0
  0
BLOCK
  8
0
  2
*D20
 70
     1
 10
0.0
 20
0.0
 30
0.0
  0
LINE
  5
6F87
  8
\M+19557\M+19290\M+190FC
  6
BYBLOCK
 10
70.29995667620157
 20
61.74996286531575
 30
0.0
 11
70.29995667620157
 21
58.24996286531574
 31
0.0
  0
LINE
  5
6F88
  8
\M+19557\M+19290\M+190FC
  6
BYBLOCK
 10
70.29995667620157
 20
56.99996286531574
 30
0.0
 11
70.29995667620157
 21
52.8166295319824
 31
0.0
  0
INSERT
  5
6F89
  8
\M+19557\M+19290\M+190FC
  2
_OPEN30
 10
70.29995667620157
 20
62.99996286531575
 30
0.0
 41
1.25
 42
1.25
 43
1.25
 50
90.0
  0
INSERT
  5
6F8A
  8
\M+19557\M+19290\M+190FC
  2
_OPEN30
 10
70.29995667620157
 20
56.99996286531574
 30
0.0
 41
1.25
 42
1.25
 43
1.25
 50
270.0
  0
TEXT
  5
6F8B
  8
\M+19557\M+19290\M+190FC
  6
CONTINUOUS
 62
     3
 10
69.87495667620156
 20
53.2416295319824
 30
0.0
 40
1.25
  1
\U+22056
 50
90.0
  0
POINT
  5
6F8C
  8
DEFPOINTS
 62
     0
 10
70.29995667620157
 20
62.99996286531575
 30
0.0
  0
POINT
  5
6F8D
  8
DEFPOINTS
 62
     0
 10
70.29995667620157
 20
56.99996286531574
 30
0.0
  0
POINT
  5
6F8E
  8
DEFPOINTS
 62
     0
 10
70.29995667620157
 20
56.99996286531574
 30
0.0
  0
ENDBLK
  8
0
  0
BLOCK
  8
0
  2
A$C51E94851
 70
     0
 10
0.0
 20
0.0
 30
0.0
  0
LINE
  5
6F91
  8
本體外線
 10
11.52761458366581
 20
10.64166677803075
 30
0.0
 11
64.1276145836658
 21
10.64166677803074
 31
0.0
  0
LINE
  5
6F92
  8
本體外線
 10
64.3276145836658
 20
10.84166677803074
 30
0.0
 11
64.1276145836658
 21
10.64166677803074
 31
0.0
  0
LINE
  5
6F93
  8
CONTOUR
 10
10.72761458366581
 20
11.44166677803075
 30
0.0
 11
11.52761458366581
 21
10.64166677803075
 31
0.0
  0
LINE
  5
6F94
  8
本體外線
 10
64.3276145836658
 20
10.84166677803074
 30
0.0
 11
64.3276145836658
 21
16.44166677803074
 31
0.0
  0
LINE
  5
6F95
  8
本體內線
 10
63.82761458366581
 20
15.74166677803075
 30
0.0
 11
64.3276145836658
 21
16.24166677803075
 31
0.0
  0
LINE
  5
6F96
  8
本體外線
 10
64.1276145836658
 20
16.64166677803075
 30
0.0
 11
64.3276145836658
 21
16.44166677803074
 31
0.0
  0
LINE
  5
6F97
  8
本體外線
 10
64.1276145836658
 20
16.64166677803075
 30
0.0
 11
11.52761458366582
 21
16.64166677803075
 31
0.0
  0
LINE
  5
6F98
  8
CONTOUR
 10
10.72761458366582
 20
15.84166677803076
 30
0.0
 11
10.72761458366581
 21
11.44166677803075
 31
0.0
  0
LINE
  5
6F99
  8
CONTOUR
 10
11.52761458366582
 20
16.64166677803075
 30
0.0
 11
10.72761458366582
 21
15.84166677803076
 31
0.0
  0
LINE
  5
6F9A
  8
中心線
 10
65.3276145836658
 20
13.64166677803075
 30
0.0
 11
9.727614583665812
 21
13.64166677803075
 31
0.0
  0
LINE
  5
6F9B
  8
CONTOUR
 62
     4
 10
11.15261458366582
 20
16.26666677803075
 30
0.0
 11
18.72761458366582
 21
16.26666677803075
 31
0.0
  0
LINE
  5
6F9C
  8
CONTOUR
 62
     4
 10
11.15261458366581
 20
11.01666677803075
 30
0.0
 11
18.72761458366582
 21
11.01666677803075
 31
0.0
  0
LINE
  5
6F9D
  8
CONTOUR
 62
     4
 10
18.72761458366581
 20
16.26666677803075
 30
0.0
 11
19.37713363650414
 21
16.64166677803075
 31
0.0
  0
LINE
  5
6F9E
  8
CONTOUR
 62
     4
 10
18.72761458366581
 20
11.01666677803075
 30
0.0
 11
19.37713363650415
 21
10.64166677803075
 31
0.0
  0
LINE
  5
6F9F
  8
CONTOUR
 10
18.72761458366582
 20
10.64166677803075
 30
0.0
 11
18.72761458366582
 21
16.64166677803075
 31
0.0
  0
LINE
  5
6FA0
  8
CONTOUR
 10
11.52761458366582
 20
16.64166677803075
 30
0.0
 11
11.52761458366582
 21
10.64166677803075
 31
0.0
  0
LINE
  5
6FA1
  8
本體內線
 10
10.72761458366582
 20
15.64166677803076
 30
0.0
 11
57.32761458366578
 21
15.64166677803076
 31
0.0
  0
LINE
  5
6FA2
  8
本體內線
 10
10.72761458366582
 20
11.64166677803075
 30
0.0
 11
57.32761458366578
 21
11.64166677803074
 31
0.0
  0
LINE
  5
6FA3
  8
本體外線
 10
64.1276145836658
 20
16.64166677803075
 30
0.0
 11
64.12761458366582
 21
10.64166677803074
 31
0.0
  0
LINE
  5
6FA4
  8
本體內線
 10
64.22761458366578
 20
16.14166677803074
 30
0.0
 11
57.32761458366579
 21
16.14166677803074
 31
0.0
  0
LINE
  5
6FA5
  8
本體內線
 10
64.22761458366581
 20
11.14166677803074
 30
0.0
 11
57.32761458366579
 21
11.14166677803074
 31
0.0
  0
LINE
  5
6FA6
  8
本體內線
 10
57.32761458366579
 20
11.14166677803074
 30
0.0
 11
57.32761458366579
 21
16.14166677803074
 31
0.0
  0
LINE
  5
6FA7
  8
本體內線
 10
57.32761458366579
 20
15.74166677803075
 30
0.0
 11
63.82761458366581
 21
15.74166677803075
 31
0.0
  0
LINE
  5
6FA8
  8
本體內線
 10
57.32761458366579
 20
11.54166677803075
 30
0.0
 11
63.82761458366581
 21
11.54166677803075
 31
0.0
  0
LINE
  5
6FA9
  8
本體內線
 10
63.82761458366581
 20
11.54166677803075
 30
0.0
 11
64.3276145836658
 21
11.04166677803075
 31
0.0
  0
LINE
  5
6FAA
  8
本體內線
 10
63.82761458366581
 20
11.54166677803075
 30
0.0
 11
63.82761458366581
 21
15.74166677803075
 31
0.0
  0
LINE
  5
6FAB
  8
本體內線
 10
57.32761458366579
 20
16.14166677803074
 30
0.0
 11
56.46158917988139
 21
15.64166677803075
 31
0.0
  0
LINE
  5
6FAC
  8
本體內線
 10
57.32761458366579
 20
11.14166677803074
 30
0.0
 11
56.46158917988139
 21
11.64166677803073
 31
0.0
  0
DIMENSION
  5
6FAD
  8
\M+19557\M+19290\M+190FC
  2
*D14
 10
10.72761458366582
 20
20.115054823592
 30
0.0
 11
14.72761458366582
 21
21.165054823592
 31
0.0
 12
-32.47234209253577
 22
-46.358296087285
 32
0.0
 70
     0
 13
18.72761458366582
 23
16.64166677803075
 33
0.0
 14
10.72761458366582
 24
15.84166677803076
 34
0.0
  0
DIMENSION
  5
6FAE
  8
\M+19557\M+19290\M+190FC
  2
*D15
 10
64.3276145836658
 20
25.61748696983273
 30
0.0
 11
37.52761458366581
 21
26.66748696983272
 31
0.0
 12
-32.47234209253577
 22
-46.358296087285
 32
0.0
 70
     0
 13
10.72761458366582
 23
15.84166677803076
 33
0.0
 14
64.3276145836658
 24
16.44166677803074
 34
0.0
  0
DIMENSION
  5
6FAF
  8
\M+19557\M+19290\M+190FC
  2
*D16
 10
6.72397900274666
 20
11.64166677803075
 30
0.0
 11
5.673979002746655
 21
13.64166677803076
 31
0.0
 12
-32.47234209253577
 22
-46.358296087285
 32
0.0
 70
     0
  1
%%c<>
 13
10.72761458366582
 23
15.64166677803076
 33
0.0
 14
10.72761458366582
 24
11.64166677803075
 34
0.0
 50
90.0
  0
DIMENSION
  5
6FB0
  8
\M+19557\M+19290\M+190FC
  2
*D17
 10
57.32761458366579
 20
20.115054823592
 30
0.0
 11
60.82761458366579
 21
21.165054823592
 31
0.0
 12
-32.47234209253577
 22
-46.358296087285
 32
0.0
 70
     0
 13
64.3276145836658
 23
16.44166677803074
 33
0.0
 14
57.32761458366579
 24
16.14166677803074
 34
0.0
  0
DIMENSION
  5
6FB1
  8
\M+19557\M+19290\M+190FC
  2
*D18
 10
1.67500014208867
 20
10.64166677803075
 30
0.0
 11
1.675000142088656
 21
4.695833444697428
 31
0.0
 12
-32.47234209253577
 22
-46.358296087285
 32
0.0
 70
   128
  1
M6x0.75P
 13
11.52761458366582
 23
16.64166677803075
 33
0.0
 14
11.52761458366582
 24
10.64166677803075
 34
0.0
 50
90.0
  0
DIMENSION
  5
6FB2
  8
\M+19557\M+19290\M+190FC
  2
*D19
 10
70.00214824207046
 20
11.14166677803074
 30
0.0
 11
68.95214824207045
 21
5.820833444697421
 31
0.0
 12
-32.47234209253577
 22
-46.358296087285
 32
0.0
 70
     0
  1
M5x0.8P
 13
64.22761458366578
 23
16.14166677803074
 33
0.0
 14
64.22761458366583
 24
11.14166677803074
 34
0.0
 50
90.0
  0
DIMENSION
  5
6FB3
  8
\M+19557\M+19290\M+190FC
  2
*D20
 10
37.82761458366581
 20
10.64166677803074
 30
0.0
 11
37.82761458366579
 21
7.925000111364078
 31
0.0
 12
-32.47234209253577
 22
-46.358296087285
 32
0.0
 70
   128
  1
%%c<>
 13
37.82761458366581
 23
16.64166677803075
 33
0.0
 14
37.82761458366581
 24
10.64166677803074
 34
0.0
 50
90.0
  0
ENDBLK
  8
0
  0
BLOCK
  8
0
  2
*D22
 70
     1
 10
0.0
 20
0.0
 30
0.0
  0
LINE
  5
87DD
  8
\M+19557\M+19290\M+190FC
  6
BYBLOCK
 10
92.59541677103039
 20
119.3499999999999
 30
0.0
 11
92.59541677103039
 21
129.4321551944429
 31
0.0
  0
LINE
  5
87DE
  8
\M+19557\M+19290\M+190FC
  6
BYBLOCK
 10
112.5954167710304
 20
113.6499999999999
 30
0.0
 11
112.5954167710304
 21
129.4321551944429
 31
0.0
  0
LINE
  5
87DF
  8
\M+19557\M+19290\M+190FC
  6
BYBLOCK
 10
95.09541677103039
 20
128.5821551944429
 30
0.0
 11
110.0954167710304
 21
128.5821551944429
 31
0.0
  0
INSERT
  5
87E0
  8
\M+19557\M+19290\M+190FC
  2
_OPEN30
 10
92.59541677103039
 20
128.5821551944429
 30
0.0
 41
2.5
 42
2.5
 43
2.5
 50
180.0
  0
INSERT
  5
87E1
  8
\M+19557\M+19290\M+190FC
  2
_OPEN30
 10
112.5954167710304
 20
128.5821551944429
 30
0.0
 41
2.5
 42
2.5
 43
2.5
  0
TEXT
  5
87E2
  8
\M+19557\M+19290\M+190FC
  6
CONTINUOUS
 62
     3
 10
100.7204167710304
 20
129.4321551944429
 30
0.0
 40
2.5
  1
20
  0
POINT
  5
87E3
  8
DEFPOINTS
 62
     0
 10
92.59541677103039
 20
118.4999999999999
 30
0.0
  0
POINT
  5
87E4
  8
DEFPOINTS
 62
     0
 10
112.5954167710304
 20
112.7999999999999
 30
0.0
  0
POINT
  5
87E5
  8
DEFPOINTS
 62
     0
 10
112.5954167710304
 20
128.5821551944429
 30
0.0
  0
ENDBLK
  8
0
  0
BLOCK
  8
0
  2
*D23
 70
     1
 10
0.0
 20
0.0
 30
0.0
  0
LINE
  5
87E6
  8
\M+19557\M+19290\M+190FC
  6
BYBLOCK
 10
92.59541677103039
 20
119.3499999999999
 30
0.0
 11
92.59541677103039
 21
129.4321551944429
 31
0.0
  0
LINE
  5
87E7
  8
\M+19557\M+19290\M+190FC
  6
BYBLOCK
 10
82.59541677103039
 20
114.868779390244
 30
0.0
 11
82.59541677103039
 21
129.4321551944429
 31
0.0
  0
LINE
  5
87E8
  8
\M+19557\M+19290\M+190FC
  6
BYBLOCK
 10
90.09541677103039
 20
128.5821551944429
 30
0.0
 11
85.09541677103039
 21
128.5821551944429
 31
0.0
  0
INSERT
  5
87E9
  8
\M+19557\M+19290\M+190FC
  2
_OPEN30
 10
92.59541677103039
 20
128.5821551944429
 30
0.0
 41
2.5
 42
2.5
 43
2.5
  0
INSERT
  5
87EA
  8
\M+19557\M+19290\M+190FC
  2
_OPEN30
 10
82.59541677103039
 20
128.5821551944429
 30
0.0
 41
2.5
 42
2.5
 43
2.5
 50
180.0
  0
TEXT
  5
87EB
  8
\M+19557\M+19290\M+190FC
  6
CONTINUOUS
 62
     3
 10
86.13708343769706
 20
129.4321551944429
 30
0.0
 40
2.5
  1
10
  0
POINT
  5
87EC
  8
DEFPOINTS
 62
     0
 10
92.59541677103039
 20
118.4999999999999
 30
0.0
  0
POINT
  5
87ED
  8
DEFPOINTS
 62
     0
 10
82.59541677103039
 20
114.018779390244
 30
0.0
  0
POINT
  5
87EE
  8
DEFPOINTS
 62
     0
 10
82.59541677103039
 20
128.5821551944429
 30
0.0
  0
ENDBLK
  8
0
  0
BLOCK
  8
0
  2
*D24
 70
     1
 10
0.0
 20
0.0
 30
0.0
  0
LINE
  5
8850
  8
\M+19557\M+19290\M+190FC
  6
BYBLOCK
 10
112.9454167710304
 20
111.9999999999999
 30
0.0
 11
120.593273303922
 21
111.9999999999999
 31
0.0
  0
LINE
  5
8851
  8
\M+19557\M+19290\M+190FC
  6
BYBLOCK
 10
112.9454167710304
 20
107.9999999999999
 30
0.0
 11
120.593273303922
 21
107.9999999999999
 31
0.0
  0
LINE
  5
8852
  8
\M+19557\M+19290\M+190FC
  6
BYBLOCK
 10
119.743273303922
 20
114.4999999999999
 30
0.0
 11
119.743273303922
 21
116.9999999999999
 31
0.0
  0
LINE
  5
8853
  8
\M+19557\M+19290\M+190FC
  6
BYBLOCK
 10
119.743273303922
 20
105.4999999999999
 30
0.0
 11
119.743273303922
 21
91.2666666666693
 31
0.0
  0
LINE
  5
8854
  8
\M+19557\M+19290\M+190FC
  6
BYBLOCK
 10
119.743273303922
 20
111.9999999999999
 30
0.0
 11
119.743273303922
 21
107.9999999999999
 31
0.0
  0
INSERT
  5
8855
  8
\M+19557\M+19290\M+190FC
  2
_OPEN30
 10
119.743273303922
 20
111.9999999999999
 30
0.0
 41
2.5
 42
2.5
 43
2.5
 50
270.0
  0
INSERT
  5
8856
  8
\M+19557\M+19290\M+190FC
  2
_OPEN30
 10
119.743273303922
 20
107.9999999999999
 30
0.0
 41
2.5
 42
2.5
 43
2.5
 50
90.0
  0
TEXT
  5
8857
  8
\M+19557\M+19290\M+190FC
  6
CONTINUOUS
 62
     3
 10
118.893273303922
 20
92.1166666666693
 30
0.0
 40
2.5
  1
\U+22054
 50
90.0
  0
POINT
  5
8858
  8
DEFPOINTS
 62
     0
 10
112.0954167710304
 20
111.9999999999999
 30
0.0
  0
POINT
  5
8859
  8
DEFPOINTS
 62
     0
 10
112.0954167710304
 20
107.9999999999999
 30
0.0
  0
POINT
  5
885A
  8
DEFPOINTS
 62
     0
 10
119.743273303922
 20
107.9999999999999
 30
0.0
  0
ENDBLK
  8
0
  0
BLOCK
  8
0
  2
*D25
 70
     1
 10
0.0
 20
0.0
 30
0.0
  0
LINE
  5
9445
  8
\M+19557\M+19290\M+190FC
  6
BYBLOCK
 10
111.0124635342005
 20
105.2966732219227
 30
0.0
 11
119.6920763011539
 21
99.21914293376065
 31
0.0
  0
LINE
  5
9446
  8
\M+19557\M+19290\M+190FC
  6
BYBLOCK
 10
119.7944703066901
 20
99.1474458792168
 30
0.0
 11
132.2978456031885
 21
90.39248824354355
 31
0.0
  0
LINE
  5
9447
  8
\M+19557\M+19290\M+190FC
  6
BYBLOCK
 10
114.4454167710304
 20
110.0
 30
0.0
 11
119.680773303922
 21
110.0
 31
0.0
  0
LINE
  5
9448
  8
\M+19557\M+19290\M+190FC
  6
BYBLOCK
 10
119.805773303922
 20
110.0
 30
0.0
 11
125.8432733039193
 21
110.0000000000001
 31
0.0
  0
LINE
  5
9449
  8
\M+19557\M+19290\M+190FC
  6
BYBLOCK
 10
130.2932733039193
 20
110.0000000000001
 30
0.0
 11
138.4800703129296
 21
110.0000000000001
 31
0.0
  0
ARC
  5
944A
  8
\M+19557\M+19290\M+190FC
  6
BYBLOCK
 10
104.2954167710326
 20
109.9999999999999
 30
0.0
 40
33.33465354189696
 50
329.298020945331
 51
355.7019790546694
  0
INSERT
  5
944B
  8
\M+19557\M+19290\M+190FC
  2
_OPEN30
 10
131.6015663655429
 20
90.88002821444194
 30
0.0
 41
2.5
 42
2.5
 43
2.5
 50
237.1490104726655
  0
INSERT
  5
944C
  8
\M+19557\M+19290\M+190FC
  2
_OPEN30
 10
137.6300703129296
 20
110.0000000000001
 30
0.0
 41
2.5
 42
2.5
 43
2.5
 50
87.85098952733476
  0
TEXT
  5
944D
  8
\M+19557\M+19290\M+190FC
  6
CONTINUOUS
 62
     3
 10
134.3995229112358
 20
97.45000184538225
 30
0.0
 40
2.5
  1
35°
 50
72.50000000000009
  0
POINT
  5
944E
  8
DEFPOINTS
 62
     0
 10
134.9038325704761
 20
96.79681822412913
 30
0.0
  0
POINT
  5
944F
  8
DEFPOINTS
 62
     0
 10
113.5954167710304
 20
110.0
 30
0.0
  0
POINT
  5
9450
  8
DEFPOINTS
 62
     0
 10
104.2954167710307
 20
110.0000000000013
 30
0.0
  0
POINT
  5
9451
  8
DEFPOINTS
 62
     0
 10
110.3161842965548
 20
105.7842131928211
 30
0.0
  0
POINT
  5
9452
  8
DEFPOINTS
 62
     0
 10
81.59541677103059
 20
109.9999999999999
 30
0.0
  0
ENDBLK
  8
0
  0
BLOCK
  8
0
  2
*D26
 70
     1
 10
0.0
 20
0.0
 30
0.0
  0
LINE
  5
8809
  8
\M+19557\M+19290\M+190FC
  6
BYBLOCK
 10
170.9745223282153
 20
115.7574772881119
 30
0.0
 11
170.9745223282153
 21
129.4321551944429
 31
0.0
  0
LINE
  5
880A
  8
\M+19557\M+19290\M+190FC
  6
BYBLOCK
 10
187.9745223282156
 20
115.7574772881119
 30
0.0
 11
187.9745223282156
 21
129.4321551944429
 31
0.0
  0
LINE
  5
880B
  8
\M+19557\M+19290\M+190FC
  6
BYBLOCK
 10
173.4745223282153
 20
128.5821551944429
 30
0.0
 11
185.4745223282156
 21
128.5821551944429
 31
0.0
  0
INSERT
  5
880C
  8
\M+19557\M+19290\M+190FC
  2
_OPEN30
 10
170.9745223282153
 20
128.5821551944429
 30
0.0
 41
2.5
 42
2.5
 43
2.5
 50
180.0
  0
INSERT
  5
880D
  8
\M+19557\M+19290\M+190FC
  2
_OPEN30
 10
187.9745223282156
 20
128.5821551944429
 30
0.0
 41
2.5
 42
2.5
 43
2.5
  0
TEXT
  5
880E
  8
\M+19557\M+19290\M+190FC
  6
CONTINUOUS
 62
     3
 10
177.8078556615488
 20
129.4321551944429
 30
0.0
 40
2.5
  1
17
  0
POINT
  5
880F
  8
DEFPOINTS
 62
     0
 10
170.9745223282153
 20
114.9074772881119
 30
0.0
  0
POINT
  5
8810
  8
DEFPOINTS
 62
     0
 10
187.9745223282156
 20
114.9074772881119
 30
0.0
  0
POINT
  5
8811
  8
DEFPOINTS
 62
     0
 10
187.9745223282156
 20
128.5821551944429
 30
0.0
  0
ENDBLK
  8
0
  0
BLOCK
  8
0
  2
*D27
 70
     1
 10
0.0
 20
0.0
 30
0.0
  0
LINE
  5
8812
  8
\M+19557\M+19290\M+190FC
  6
BYBLOCK
 10
82.24541677103039
 20
113.0000000000002
 30
0.0
 11
74.55835087417653
 21
113.0000000000002
 31
0.0
  0
LINE
  5
8813
  8
\M+19557\M+19290\M+190FC
  6
BYBLOCK
 10
82.2454167710305
 20
106.9999999999996
 30
0.0
 11
74.55835087417653
 21
106.9999999999996
 31
0.0
  0
LINE
  5
8814
  8
\M+19557\M+19290\M+190FC
  6
BYBLOCK
 10
75.40835087417652
 20
115.5000000000002
 30
0.0
 11
75.40835087417652
 21
118.0000000000002
 31
0.0
  0
LINE
  5
8815
  8
\M+19557\M+19290\M+190FC
  6
BYBLOCK
 10
75.40835087417652
 20
104.4999999999996
 30
0.0
 11
75.40835087417652
 21
101.9999999999996
 31
0.0
  0
LINE
  5
8816
  8
\M+19557\M+19290\M+190FC
  6
BYBLOCK
 10
75.40835087417652
 20
113.0000000000002
 30
0.0
 11
75.40835087417652
 21
106.9999999999996
 31
0.0
  0
INSERT
  5
8817
  8
\M+19557\M+19290\M+190FC
  2
_OPEN30
 10
75.40835087417652
 20
113.0000000000002
 30
0.0
 41
2.5
 42
2.5
 43
2.5
 50
270.0
  0
INSERT
  5
8818
  8
\M+19557\M+19290\M+190FC
  2
_OPEN30
 10
75.40835087417652
 20
106.9999999999996
 30
0.0
 41
2.5
 42
2.5
 43
2.5
 50
90.0
  0
TEXT
  5
8819
  8
\M+19557\M+19290\M+190FC
  6
CONTINUOUS
 62
     3
 10
74.55835087417648
 20
107.9166666666666
 30
0.0
 40
2.5
  1
\U+22056
 50
90.0
  0
POINT
  5
881A
  8
DEFPOINTS
 62
     0
 10
83.09541677103039
 20
113.0000000000002
 30
0.0
  0
POINT
  5
881B
  8
DEFPOINTS
 62
     0
 10
83.0954167710305
 20
106.9999999999996
 30
0.0
  0
POINT
  5
881C
  8
DEFPOINTS
 62
     0
 10
75.40835087417652
 20
106.9999999999996
 30
0.0
  0
ENDBLK
  8
0
  0
BLOCK
  8
0
  2
*D33
 70
     1
 10
0.0
 20
0.0
 30
0.0
  0
LINE
  5
881D
  8
\M+19557\M+19290\M+190FC
  6
BYBLOCK
 10
114.4454167710304
 20
110.0
 30
0.0
 11
125.8432733039194
 21
110.0
 31
0.0
  0
LINE
  5
881E
  8
\M+19557\M+19290\M+190FC
  6
BYBLOCK
 10
130.2932733039193
 20
110.0
 30
0.0
 11
138.4877038647389
 21
110.0
 31
0.0
  0
LINE
  5
881F
  8
\M+19557\M+19290\M+190FC
  6
BYBLOCK
 10
111.0124635342004
 20
114.7033267780799
 30
0.0
 11
132.3040986427575
 21
129.611890181902
 31
0.0
  0
ARC
  5
8820
  8
\M+19557\M+19290\M+190FC
  6
BYBLOCK
 10
104.2954167710288
 20
109.9999999999999
 30
0.0
 40
33.34228709371004
 50
4.297036473145545
 51
30.70296352685457
  0
INSERT
  5
8821
  8
\M+19557\M+19290\M+190FC
  2
_OPEN30
 10
137.6377038647389
 20
110.0
 30
0.0
 41
2.5
 42
2.5
 43
2.5
 50
272.1485182365728
  0
INSERT
  5
8822
  8
\M+19557\M+19290\M+190FC
  2
_OPEN30
 10
131.6078194051119
 20
129.1243502110036
 30
0.0
 41
2.5
 42
2.5
 43
2.5
 50
122.8514817634273
  0
TEXT
  5
8823
  8
\M+19557\M+19290\M+190FC
  6
CONTINUOUS
 62
     3
 10
136.1609203227654
 20
116.9889447285541
 30
0.0
 40
2.5
  1
35°
 50
107.5000000000001
  0
POINT
  5
8824
  8
DEFPOINTS
 62
     0
 10
136.9488729444683
 20
116.7423963520879
 30
0.0
  0
POINT
  5
8825
  8
DEFPOINTS
 62
     0
 10
104.2954167710307
 20
110.0000000000013
 30
0.0
  0
POINT
  5
8826
  8
DEFPOINTS
 62
     0
 10
113.5954167710304
 20
110.0
 30
0.0
  0
POINT
  5
8827
  8
DEFPOINTS
 62
     0
 10
81.5954167710306
 20
109.9999999999999
 30
0.0
  0
POINT
  5
8828
  8
DEFPOINTS
 62
     0
 10
110.3161842965548
 20
114.2157868071815
 30
0.0
  0
ENDBLK
  8
0
  0
BLOCK
  8
0
  2
*D34
 70
     1
 10
0.0
 20
0.0
 30
0.0
  0
LINE
  5
8C49
  8
\M+19557\M+19290\M+190FC
  6
BYBLOCK
 10
113.245416771029
 20
113.0000000000013
 30
0.0
 11
130.5932733039193
 21
113.0000000000013
 31
0.0
  0
LINE
  5
8C4A
  8
\M+19557\M+19290\M+190FC
  6
BYBLOCK
 10
113.2454167710318
 20
107.0000000000013
 30
0.0
 11
130.5932733039193
 21
107.0000000000013
 31
0.0
  0
LINE
  5
8C4B
  8
\M+19557\M+19290\M+190FC
  6
BYBLOCK
 10
129.7432733039193
 20
115.5000000000013
 30
0.0
 11
129.7432733039193
 21
118.0000000000013
 31
0.0
  0
LINE
  5
8C4C
  8
\M+19557\M+19290\M+190FC
  6
BYBLOCK
 10
129.7432733039193
 20
104.5000000000013
 30
0.0
 11
129.7432733039193
 21
102.0000000000013
 31
0.0
  0
LINE
  5
8C4D
  8
\M+19557\M+19290\M+190FC
  6
BYBLOCK
 10
129.7432733039193
 20
113.0000000000013
 30
0.0
 11
129.7432733039193
 21
107.0000000000013
 31
0.0
  0
INSERT
  5
8C4E
  8
\M+19557\M+19290\M+190FC
  2
_OPEN30
 10
129.7432733039193
 20
113.0000000000013
 30
0.0
 41
2.5
 42
2.5
 43
2.5
 50
270.0
  0
INSERT
  5
8C4F
  8
\M+19557\M+19290\M+190FC
  2
_OPEN30
 10
129.7432733039193
 20
107.0000000000013
 30
0.0
 41
2.5
 42
2.5
 43
2.5
 50
90.0
  0
TEXT
  5
8C50
  8
\M+19557\M+19290\M+190FC
  6
CONTINUOUS
 62
     3
 10
128.8932733039192
 20
107.916666666668
 30
0.0
 40
2.5
  1
\U+22056
 50
90.0
  0
POINT
  5
8C51
  8
DEFPOINTS
 62
     0
 10
112.395416771029
 20
113.0000000000013
 30
0.0
  0
POINT
  5
8C52
  8
DEFPOINTS
 62
     0
 10
112.3954167710318
 20
107.0000000000013
 30
0.0
  0
POINT
  5
8C53
  8
DEFPOINTS
 62
     0
 10
129.7432733039193
 20
107.0000000000013
 30
0.0
  0
ENDBLK
  8
0
  0
BLOCK
  8
0
  2
*D40
 70
     1
 10
0.0
 20
0.0
 30
0.0
  0
LINE
  5
955F
  8
\M+19557\M+19290\M+190FC
  6
BYBLOCK
 10
360.5282448435885
 20
113.0000001059753
 30
0.0
 11
352.8411789467347
 21
113.0000001059753
 31
0.0
  0
LINE
  5
9560
  8
\M+19557\M+19290\M+190FC
  6
BYBLOCK
 10
360.5282448435887
 20
107.0000001059747
 30
0.0
 11
352.8411789467347
 21
107.0000001059747
 31
0.0
  0
LINE
  5
9561
  8
\M+19557\M+19290\M+190FC
  6
BYBLOCK
 10
353.6911789467347
 20
115.5000001059753
 30
0.0
 11
353.6911789467347
 21
118.0000001059753
 31
0.0
  0
LINE
  5
9562
  8
\M+19557\M+19290\M+190FC
  6
BYBLOCK
 10
353.6911789467347
 20
104.5000001059747
 30
0.0
 11
353.6911789467347
 21
102.0000001059747
 31
0.0
  0
LINE
  5
9563
  8
\M+19557\M+19290\M+190FC
  6
BYBLOCK
 10
353.6911789467347
 20
113.0000001059753
 30
0.0
 11
353.6911789467347
 21
107.0000001059747
 31
0.0
  0
INSERT
  5
9564
  8
\M+19557\M+19290\M+190FC
  2
_OPEN30
 10
353.6911789467347
 20
113.0000001059753
 30
0.0
 41
2.5
 42
2.5
 43
2.5
 50
270.0
  0
INSERT
  5
9565
  8
\M+19557\M+19290\M+190FC
  2
_OPEN30
 10
353.6911789467347
 20
107.0000001059747
 30
0.0
 41
2.5
 42
2.5
 43
2.5
 50
90.0
  0
TEXT
  5
9566
  8
\M+19557\M+19290\M+190FC
  6
CONTINUOUS
 62
     3
 10
352.8411789467347
 20
107.9166667726418
 30
0.0
 40
2.5
  1
\U+22056
 50
90.0
  0
POINT
  5
9567
  8
DEFPOINTS
 62
     0
 10
361.3782448435886
 20
113.0000001059753
 30
0.0
  0
POINT
  5
9568
  8
DEFPOINTS
 62
     0
 10
361.3782448435887
 20
107.0000001059747
 30
0.0
  0
POINT
  5
9569
  8
DEFPOINTS
 62
     0
 10
353.6911789467347
 20
107.0000001059747
 30
0.0
  0
ENDBLK
  8
0
  0
BLOCK
  8
0
  2
*D41
 70
     1
 10
0.0
 20
0.0
 30
0.0
  0
LINE
  5
956D
  8
\M+19557\M+19290\M+190FC
  6
BYBLOCK
 10
392.7282448435886
 20
110.0000001059751
 30
0.0
 11
416.7705319372971
 21
110.0000001059752
 31
0.0
  0
LINE
  5
956E
  8
\M+19557\M+19290\M+190FC
  6
BYBLOCK
 10
389.2952916067587
 20
114.703326884055
 30
0.0
 11
410.5869267153157
 21
129.6118902878772
 31
0.0
  0
ARC
  5
956F
  8
\M+19557\M+19290\M+190FC
  6
BYBLOCK
 10
382.578244843587
 20
110.0000001059751
 30
0.0
 40
33.34228709371009
 50
4.297036473145583
 51
30.70296352685457
  0
INSERT
  5
9570
  8
\M+19557\M+19290\M+190FC
  2
_OPEN30
 10
415.920531937297
 20
110.0000001059752
 30
0.0
 41
2.5
 42
2.5
 43
2.5
 50
272.1485182365728
  0
INSERT
  5
9571
  8
\M+19557\M+19290\M+190FC
  2
_OPEN30
 10
409.89064747767
 20
129.1243503169788
 30
0.0
 41
2.5
 42
2.5
 43
2.5
 50
122.8514817634273
  0
TEXT
  5
9572
  8
\M+19557\M+19290\M+190FC
  6
CONTINUOUS
 62
     3
 10
414.4437483953236
 20
116.9889448345293
 30
0.0
 40
2.5
  1
35°
 50
107.5000000000001
  0
POINT
  5
9573
  8
DEFPOINTS
 62
     0
 10
415.2317010170265
 20
116.742396458063
 30
0.0
  0
POINT
  5
9574
  8
DEFPOINTS
 62
     0
 10
382.5782448435888
 20
110.0000001059764
 30
0.0
  0
POINT
  5
9575
  8
DEFPOINTS
 62
     0
 10
391.8782448435885
 20
110.0000001059751
 30
0.0
  0
POINT
  5
9576
  8
DEFPOINTS
 62
     0
 10
359.8782448435887
 20
110.000000105975
 30
0.0
  0
POINT
  5
9577
  8
DEFPOINTS
 62
     0
 10
388.599012369113
 20
114.2157869131566
 30
0.0
  0
ENDBLK
  8
0
  0
BLOCK
  8
0
  2
*D42
 70
     1
 10
0.0
 20
0.0
 30
0.0
  0
LINE
  5
957B
  8
\M+19557\M+19290\M+190FC
  6
BYBLOCK
 10
391.5282448435872
 20
113.0000001059764
 30
0.0
 11
408.8761013764774
 21
113.0000001059764
 31
0.0
  0
LINE
  5
957C
  8
\M+19557\M+19290\M+190FC
  6
BYBLOCK
 10
391.52824484359
 20
107.0000001059764
 30
0.0
 11
408.8761013764774
 21
107.0000001059764
 31
0.0
  0
LINE
  5
957D
  8
\M+19557\M+19290\M+190FC
  6
BYBLOCK
 10
408.0261013764774
 20
115.5000001059764
 30
0.0
 11
408.0261013764774
 21
118.0000001059764
 31
0.0
  0
LINE
  5
957E
  8
\M+19557\M+19290\M+190FC
  6
BYBLOCK
 10
408.0261013764774
 20
104.5000001059764
 30
0.0
 11
408.0261013764774
 21
102.0000001059764
 31
0.0
  0
LINE
  5
957F
  8
\M+19557\M+19290\M+190FC
  6
BYBLOCK
 10
408.0261013764774
 20
113.0000001059764
 30
0.0
 11
408.0261013764774
 21
107.0000001059764
 31
0.0
  0
INSERT
  5
9580
  8
\M+19557\M+19290\M+190FC
  2
_OPEN30
 10
408.0261013764774
 20
113.0000001059764
 30
0.0
 41
2.5
 42
2.5
 43
2.5
 50
270.0
  0
INSERT
  5
9581
  8
\M+19557\M+19290\M+190FC
  2
_OPEN30
 10
408.0261013764774
 20
107.0000001059764
 30
0.0
 41
2.5
 42
2.5
 43
2.5
 50
90.0
  0
TEXT
  5
9582
  8
\M+19557\M+19290\M+190FC
  6
CONTINUOUS
 62
     3
 10
407.1761013764774
 20
107.9166667726432
 30
0.0
 40
2.5
  1
\U+22056
 50
90.0
  0
POINT
  5
9583
  8
DEFPOINTS
 62
     0
 10
390.6782448435872
 20
113.0000001059764
 30
0.0
  0
POINT
  5
9584
  8
DEFPOINTS
 62
     0
 10
390.6782448435899
 20
107.0000001059764
 30
0.0
  0
POINT
  5
9585
  8
DEFPOINTS
 62
     0
 10
408.0261013764774
 20
107.0000001059764
 30
0.0
  0
ENDBLK
  8
0
  0
BLOCK
  8
0
  2
*D43
 70
     1
 10
0.0
 20
0.0
 30
0.0
  0
LINE
  5
9589
  8
\M+19557\M+19290\M+190FC
  6
BYBLOCK
 10
370.8782448435886
 20
119.350000105975
 30
0.0
 11
370.8782448435886
 21
129.4321553004181
 31
0.0
  0
LINE
  5
958A
  8
\M+19557\M+19290\M+190FC
  6
BYBLOCK
 10
390.8782448435886
 20
113.6500001059751
 30
0.0
 11
390.8782448435886
 21
129.4321553004181
 31
0.0
  0
LINE
  5
958B
  8
\M+19557\M+19290\M+190FC
  6
BYBLOCK
 10
373.3782448435886
 20
128.5821553004181
 30
0.0
 11
388.3782448435886
 21
128.5821553004181
 31
0.0
  0
INSERT
  5
958C
  8
\M+19557\M+19290\M+190FC
  2
_OPEN30
 10
370.8782448435886
 20
128.5821553004181
 30
0.0
 41
2.5
 42
2.5
 43
2.5
 50
180.0
  0
INSERT
  5
958D
  8
\M+19557\M+19290\M+190FC
  2
_OPEN30
 10
390.8782448435886
 20
128.5821553004181
 30
0.0
 41
2.5
 42
2.5
 43
2.5
  0
TEXT
  5
958E
  8
\M+19557\M+19290\M+190FC
  6
CONTINUOUS
 62
     3
 10
379.0032448435886
 20
129.4321553004181
 30
0.0
 40
2.5
  1
20
  0
POINT
  5
958F
  8
DEFPOINTS
 62
     0
 10
370.8782448435886
 20
118.500000105975
 30
0.0
  0
POINT
  5
9590
  8
DEFPOINTS
 62
     0
 10
390.8782448435886
 20
112.8000001059751
 30
0.0
  0
POINT
  5
9591
  8
DEFPOINTS
 62
     0
 10
390.8782448435886
 20
128.5821553004181
 30
0.0
  0
ENDBLK
  8
0
  0
BLOCK
  8
0
  2
*D44
 70
     1
 10
0.0
 20
0.0
 30
0.0
  0
LINE
  5
9595
  8
\M+19557\M+19290\M+190FC
  6
BYBLOCK
 10
370.8782448435886
 20
119.350000105975
 30
0.0
 11
370.8782448435886
 21
129.4321553004181
 31
0.0
  0
LINE
  5
9596
  8
\M+19557\M+19290\M+190FC
  6
BYBLOCK
 10
360.8782448435886
 20
114.8687794962192
 30
0.0
 11
360.8782448435886
 21
129.4321553004181
 31
0.0
  0
LINE
  5
9597
  8
\M+19557\M+19290\M+190FC
  6
BYBLOCK
 10
368.3782448435886
 20
128.5821553004181
 30
0.0
 11
363.3782448435886
 21
128.5821553004181
 31
0.0
  0
INSERT
  5
9598
  8
\M+19557\M+19290\M+190FC
  2
_OPEN30
 10
370.8782448435886
 20
128.5821553004181
 30
0.0
 41
2.5
 42
2.5
 43
2.5
  0
INSERT
  5
9599
  8
\M+19557\M+19290\M+190FC
  2
_OPEN30
 10
360.8782448435886
 20
128.5821553004181
 30
0.0
 41
2.5
 42
2.5
 43
2.5
 50
180.0
  0
TEXT
  5
959A
  8
\M+19557\M+19290\M+190FC
  6
CONTINUOUS
 62
     3
 10
364.4199115102552
 20
129.4321553004181
 30
0.0
 40
2.5
  1
10
  0
POINT
  5
959B
  8
DEFPOINTS
 62
     0
 10
370.8782448435886
 20
118.500000105975
 30
0.0
  0
POINT
  5
959C
  8
DEFPOINTS
 62
     0
 10
360.8782448435886
 20
114.0187794962192
 30
0.0
  0
POINT
  5
959D
  8
DEFPOINTS
 62
     0
 10
360.8782448435886
 20
128.5821553004181
 30
0.0
  0
ENDBLK
  8
0
  0
BLOCK
  8
0
  2
*D45
 70
     1
 10
0.0
 20
0.0
 30
0.0
  0
LINE
  5
95A1
  8
\M+19557\M+19290\M+190FC
  6
BYBLOCK
 10
391.2282448435886
 20
112.0000001059751
 30
0.0
 11
398.8761013764815
 21
112.0000001059751
 31
0.0
  0
LINE
  5
95A2
  8
\M+19557\M+19290\M+190FC
  6
BYBLOCK
 10
391.2282448435886
 20
108.0000001059751
 30
0.0
 11
398.8761013764815
 21
108.0000001059751
 31
0.0
  0
LINE
  5
95A3
  8
\M+19557\M+19290\M+190FC
  6
BYBLOCK
 10
398.0261013764815
 20
114.5000001059751
 30
0.0
 11
398.0261013764815
 21
117.0000001059751
 31
0.0
  0
LINE
  5
95A4
  8
\M+19557\M+19290\M+190FC
  6
BYBLOCK
 10
398.0261013764815
 20
105.5000001059751
 30
0.0
 11
398.0261013764815
 21
91.26666677264576
 31
0.0
  0
LINE
  5
95A5
  8
\M+19557\M+19290\M+190FC
  6
BYBLOCK
 10
398.0261013764815
 20
112.0000001059751
 30
0.0
 11
398.0261013764815
 21
108.0000001059751
 31
0.0
  0
INSERT
  5
95A6
  8
\M+19557\M+19290\M+190FC
  2
_OPEN30
 10
398.0261013764815
 20
112.0000001059751
 30
0.0
 41
2.5
 42
2.5
 43
2.5
 50
270.0
  0
INSERT
  5
95A7
  8
\M+19557\M+19290\M+190FC
  2
_OPEN30
 10
398.0261013764815
 20
108.0000001059751
 30
0.0
 41
2.5
 42
2.5
 43
2.5
 50
90.0
  0
TEXT
  5
95A8
  8
\M+19557\M+19290\M+190FC
  6
CONTINUOUS
 62
     3
 10
397.1761013764815
 20
92.11666677264583
 30
0.0
 40
2.5
  1
\U+22054
 50
90.0
  0
POINT
  5
95A9
  8
DEFPOINTS
 62
     0
 10
390.3782448435886
 20
112.0000001059751
 30
0.0
  0
POINT
  5
95AA
  8
DEFPOINTS
 62
     0
 10
390.3782448435886
 20
108.0000001059751
 30
0.0
  0
POINT
  5
95AB
  8
DEFPOINTS
 62
     0
 10
398.0261013764815
 20
108.0000001059751
 30
0.0
  0
ENDBLK
  8
0
  0
BLOCK
  8
0
  2
*D46
 70
     1
 10
0.0
 20
0.0
 30
0.0
  0
LINE
  5
95FB
  8
\M+19557\M+19290\M+190FC
  6
BYBLOCK
 10
389.2952916067587
 20
105.2966733278979
 30
0.0
 11
397.9749043737135
 21
99.2191430397349
 31
0.0
  0
LINE
  5
95FC
  8
\M+19557\M+19290\M+190FC
  6
BYBLOCK
 10
398.0772983792496
 20
99.14744598519103
 30
0.0
 11
410.5806736757467
 21
90.3924883495187
 31
0.0
  0
LINE
  5
95FD
  8
\M+19557\M+19290\M+190FC
  6
BYBLOCK
 10
392.7282448435886
 20
110.0000001059751
 30
0.0
 11
397.9636013764816
 21
110.0000001059751
 31
0.0
  0
LINE
  5
95FE
  8
\M+19557\M+19290\M+190FC
  6
BYBLOCK
 10
398.0886013764815
 20
110.0000001059751
 30
0.0
 11
404.6136013764774
 21
110.0000001059751
 31
0.0
  0
LINE
  5
95FF
  8
\M+19557\M+19290\M+190FC
  6
BYBLOCK
 10
407.2386013764774
 20
110.0000001059752
 30
0.0
 11
407.9636013764775
 21
110.0000001059751
 31
0.0
  0
LINE
  5
9600
  8
\M+19557\M+19290\M+190FC
  6
BYBLOCK
 10
408.0886013764775
 20
110.0000001059752
 30
0.0
 11
416.7628983854878
 21
110.0000001059752
 31
0.0
  0
ARC
  5
9601
  8
\M+19557\M+19290\M+190FC
  6
BYBLOCK
 10
382.5782448435908
 20
110.0000001059751
 30
0.0
 40
33.33465354189695
 50
329.298020945331
 51
355.7019790546693
  0
INSERT
  5
9602
  8
\M+19557\M+19290\M+190FC
  2
_OPEN30
 10
409.884394438101
 20
90.88002832041711
 30
0.0
 41
2.5
 42
2.5
 43
2.5
 50
237.1490104726655
  0
INSERT
  5
9603
  8
\M+19557\M+19290\M+190FC
  2
_OPEN30
 10
415.9128983854878
 20
110.0000001059752
 30
0.0
 41
2.5
 42
2.5
 43
2.5
 50
87.85098952733476
  0
TEXT
  5
9604
  8
\M+19557\M+19290\M+190FC
  6
CONTINUOUS
 62
     3
 10
412.682350983794
 20
97.45000195135742
 30
0.0
 40
2.5
  1
35°
 50
72.50000000000017
  0
POINT
  5
9605
  8
DEFPOINTS
 62
     0
 10
413.1866606430342
 20
96.79681833010427
 30
0.0
  0
POINT
  5
9606
  8
DEFPOINTS
 62
     0
 10
391.8782448435886
 20
110.0000001059751
 30
0.0
  0
POINT
  5
9607
  8
DEFPOINTS
 62
     0
 10
382.5782448435889
 20
110.0000001059764
 30
0.0
  0
POINT
  5
9608
  8
DEFPOINTS
 62
     0
 10
388.599012369113
 20
105.7842132987963
 30
0.0
  0
POINT
  5
9609
  8
DEFPOINTS
 62
     0
 10
359.8782448435888
 20
110.0000001059751
 30
0.0
  0
ENDBLK
  8
0
  0
BLOCK
  8
0
  2
*D47
 70
     1
 10
0.0
 20
0.0
 30
0.0
  0
LINE
  5
95C1
  8
\M+19557\M+19290\M+190FC
  6
BYBLOCK
 10
449.2573504007735
 20
115.757477394087
 30
0.0
 11
449.2573504007735
 21
129.4321553004181
 31
0.0
  0
LINE
  5
95C2
  8
\M+19557\M+19290\M+190FC
  6
BYBLOCK
 10
466.2573504007737
 20
115.757477394087
 30
0.0
 11
466.2573504007737
 21
129.4321553004181
 31
0.0
  0
LINE
  5
95C3
  8
\M+19557\M+19290\M+190FC
  6
BYBLOCK
 10
451.7573504007735
 20
128.5821553004181
 30
0.0
 11
463.7573504007737
 21
128.5821553004181
 31
0.0
  0
INSERT
  5
95C4
  8
\M+19557\M+19290\M+190FC
  2
_OPEN30
 10
449.2573504007735
 20
128.5821553004181
 30
0.0
 41
2.5
 42
2.5
 43
2.5
 50
180.0
  0
INSERT
  5
95C5
  8
\M+19557\M+19290\M+190FC
  2
_OPEN30
 10
466.2573504007737
 20
128.5821553004181
 30
0.0
 41
2.5
 42
2.5
 43
2.5
  0
TEXT
  5
95C6
  8
\M+19557\M+19290\M+190FC
  6
CONTINUOUS
 62
     3
 10
456.0906837341069
 20
129.4321553004181
 30
0.0
 40
2.5
  1
17
  0
POINT
  5
95C7
  8
DEFPOINTS
 62
     0
 10
449.2573504007735
 20
114.907477394087
 30
0.0
  0
POINT
  5
95C8
  8
DEFPOINTS
 62
     0
 10
466.2573504007737
 20
114.907477394087
 30
0.0
  0
POINT
  5
95C9
  8
DEFPOINTS
 62
     0
 10
466.2573504007737
 20
128.5821553004181
 30
0.0
  0
ENDBLK
  8
0
  0
BLOCK
  8
0
  2
*X48
 70
     1
 10
0.0
 20
0.0
 30
0.0
  0
TEXT
  5
977C
  8
DIM
  6
CONTINUOUS
 10
4.845558577836869
 20
24.4079207313115
 30
0.0
 40
5.000000000000001
  1
備註：
  7
TW
  0
TEXT
  5
977D
  8
DIM
  6
CONTINUOUS
 10
4.845558577836869
 20
17.57458739797816
 30
0.0
 40
3.5
  1
表面處理：染黑(主體、鋼管)；鍍鉻(鋼球)
  7
TW
  0
ENDBLK
  8
0
  0
BLOCK
  8
0
  2
*X49
 70
     1
 10
0.0
 20
0.0
 30
0.0
  0
INSERT
  5
977F
  8
\M+19557\M+19290\M+190FC
  2
_OPEN30
 10
87.14456289219515
 20
114.7405358162865
 30
0.0
 41
2.5
 42
2.5
 43
2.5
 50
315.0000000000001
  0
LINE
  5
9780
  8
\M+19557\M+19290\M+190FC
 10
85.37679593922878
 20
116.5083027692529
 30
0.0
 11
79.73463141613817
 21
122.1504672923435
 31
0.0
  0
LINE
  5
9781
  8
\M+19557\M+19290\M+190FC
 10
79.73463141613817
 20
122.1504672923435
 30
0.0
 11
67.99747244292276
 21
122.1504672923435
 31
0.0
  0
ENDBLK
  8
0
  0
BLOCK
  8
0
  2
*X50
 70
     1
 10
0.0
 20
0.0
 30
0.0
  0
INSERT
  5
978D
  8
\M+19557\M+19290\M+190FC
  2
_OPEN30
 10
365.4273909647533
 20
114.7405359222617
 30
0.0
 41
2.5
 42
2.5
 43
2.5
 50
315.0000000000002
  0
LINE
  5
978E
  8
\M+19557\M+19290\M+190FC
 10
363.6596240117869
 20
116.508302875228
 30
0.0
 11
358.0174594886963
 21
122.1504673983186
 31
0.0
  0
LINE
  5
978F
  8
\M+19557\M+19290\M+190FC
 10
358.0174594886963
 20
122.1504673983186
 30
0.0
 11
346.2803005154809
 21
122.1504673983186
 31
0.0
  0
ENDBLK
  8
0
  0
BLOCK
  8
0
  2
*X51
 70
     1
 10
0.0
 20
0.0
 30
0.0
  0
TEXT
  5
9797
  8
DM
  6
CONTINUOUS
 10
283.6524969207528
 20
24.24575574497814
 30
0.0
 40
5.0
  1
備考
  0
TEXT
  5
9798
  8
DM
  6
CONTINUOUS
 10
291.9858302540861
 20
24.24575574497814
 30
0.0
 40
5.0
  1
:
  0
TEXT
  5
9799
  8
DM
  6
CONTINUOUS
 10
283.6524969207528
 20
18.24575574497814
 30
0.0
 40
3.5
  1
表面\U+51E6理:\U+9ED2染(主体.\U+30CE\U+30BA\U+30EB),
  0
TEXT
  5
979A
  8
DM
  6
CONTINUOUS
 10
283.6524969207528
 20
12.74575574497814
 30
0.0
 40
3.5
  1
        \U+30AF\U+30ED\U+30FC\U+30E0\U+30E1\U+30C3\U+30AD(鋼球)
  0
ENDBLK
  8
0
  0
ENDSEC
  0
SECTION
  2
ENTITIES
  0
INSERT
  5
995
  8
BOWEL
  2
*U3
 10
0.0
 20
0.0
 30
0.0
  0
INSERT
  5
A1C
  8
BOWEL
  2
*U4
 10
0.0
 20
0.0
 30
0.0
  0
POLYLINE
  5
4CAF
  8
FRAME
 66
     1
 10
0.0
 20
0.0
 30
0.0
 70
     1
  0
VERTEX
  5
9777
  8
FRAME
 10
280.0000000000001
 20
-0.0000000000000568
 30
0.0
  0
VERTEX
  5
9778
  8
FRAME
 10
280.0000000000001
 20
190.0
 30
0.0
  0
VERTEX
  5
9779
  8
FRAME
 10
0.0
 20
190.0
 30
0.0
  0
VERTEX
  5
977A
  8
FRAME
 10
0.0
 20
0.0
 30
0.0
  0
SEQEND
  5
97A5
  8
FRAME
  0
LINE
  5
4CB0
  8
FRAME
 10
90.00000000000013
 20
9.999999999999945
 30
0.0
 11
280.0000000000001
 21
9.999999999999945
 31
0.0
  0
LINE
  5
4CB1
  8
FRAME
 10
90.00000000000013
 20
19.99999999999995
 30
0.0
 11
195.0000000000001
 21
19.99999999999995
 31
0.0
  0
LINE
  5
4CB2
  8
FRAME
 10
90.00000000000013
 20
30.00000000000001
 30
0.0
 11
280.0000000000001
 21
30.00000000000001
 31
0.0
  0
LINE
  5
4CB3
  8
FRAME
 10
250.0000000000001
 20
-0.0000000000000568
 30
0.0
 11
250.0000000000001
 21
9.999999999999945
 31
0.0
  0
LINE
  5
4CB4
  8
FRAME
 10
240.0000000000001
 20
9.999999999999945
 30
0.0
 11
240.0000000000001
 21
30.00000000000001
 31
0.0
  0
LINE
  5
4CB5
  8
FRAME
 10
195.0000000000001
 20
30.00000000000001
 30
0.0
 11
195.0000000000001
 21
-0.0000000000000568
 31
0.0
  0
LINE
  5
4CB6
  8
FRAME
 10
100.0000000000001
 20
30.00000000000001
 30
0.0
 11
100.0000000000001
 21
9.999999999999945
 31
0.0
  0
LINE
  5
4CB7
  8
FRAME
 10
125.0000000000001
 20
30.00000000000001
 30
0.0
 11
125.0000000000001
 21
9.999999999999945
 31
0.0
  0
LINE
  5
4CB8
  8
FRAME
 10
135.0000000000001
 20
19.99999999999995
 30
0.0
 11
135.0000000000001
 21
9.999999999999945
 31
0.0
  0
LINE
  5
4CB9
  8
FRAME
 10
170.0000000000001
 20
29.99999999999998
 30
0.0
 11
170.0000000000001
 21
9.999999999999917
 31
0.0
  0
CIRCLE
  5
4CBA
  8
0
 10
135.5679281581437
 20
24.99999999999995
 30
0.0
 40
2.5
  0
CIRCLE
  5
4CBB
  8
0
 10
135.5679281581437
 20
24.99999999999995
 30
0.0
 40
1.25
  0
LINE
  5
4CBC
  8
0
 10
135.5679281581437
 20
27.99999999999995
 30
0.0
 11
135.5679281581437
 21
21.99999999999995
 31
0.0
  0
LINE
  5
4CBD
  8
0
 10
132.5679281581437
 20
24.99999999999995
 30
0.0
 11
138.5679281581437
 21
24.99999999999995
 31
0.0
  0
LINE
  5
4CBE
  8
0
 10
143.7317768290169
 20
26.24999999999995
 30
0.0
 11
143.7317768290169
 21
23.74999999999995
 31
0.0
  0
LINE
  5
4CBF
  8
0
 10
148.7317768290169
 20
27.49999999999995
 30
0.0
 11
148.7317768290169
 21
22.49999999999995
 31
0.0
  0
LINE
  5
4CC0
  8
0
 10
143.7317768290169
 20
23.74999999999995
 30
0.0
 11
148.7317768290169
 21
22.49999999999995
 31
0.0
  0
LINE
  5
4CC1
  8
0
 10
143.7317768290169
 20
26.24999999999995
 30
0.0
 11
148.7317768290169
 21
27.49999999999995
 31
0.0
  0
LINE
  5
4CC2
  8
0
 10
143.2317768290169
 20
24.99999999999995
 30
0.0
 11
149.2317768290169
 21
24.99999999999995
 31
0.0
  0
TEXT
  5
4CC3
  8
0
  6
CONTINUOUS
 10
91.63818356075662
 20
22.14829932738889
 30
0.0
 40
5.000000000000001
  1
日 付
 41
0.5
  7
TW
  0
TEXT
  5
4CC4
  8
0
  6
CONTINUOUS
 10
111.0013151802306
 20
1.157783016023757
 30
0.0
 40
7.000000000000002
  1
日機株式會社
 41
1.5
  7
TW
  0
TEXT
  5
4CC5
  8
0
  6
CONTINUOUS
 10
161.6381835607566
 20
22.14829932738889
 30
0.0
 40
5.000000000000001
  1
尺 度
 41
0.5
  7
TW
  0
TEXT
  5
4CC6
  8
0
  6
CONTINUOUS
 10
161.6381835607566
 20
12.14829932738886
 30
0.0
 40
5.000000000000001
  1
承 認
 41
0.5
  7
TW
  0
TEXT
  5
4CC7
  8
0
  6
CONTINUOUS
 10
196.6381835607565
 20
22.14829932738892
 30
0.0
 40
5.000000000000001
  1
品 名
 41
0.5
  7
TW
  0
TEXT
  5
4CC8
  8
0
  6
CONTINUOUS
 10
241.6381835607565
 20
22.14829932738892
 30
0.0
 40
5.000000000000001
  1
型 番
 41
0.5
  7
TW
  0
LINE
  5
4CC9
  8
FRAME
 10
160.0000000000001
 20
30.00000000000001
 30
0.0
 11
160.0000000000001
 21
10.00000000000006
 31
0.0
  0
LINE
  5
4CCA
  8
FRAME
 10
90.00000000000013
 20
30.00000000000001
 30
0.0
 11
90.00000000000013
 21
0.0
 31
0.0
  0
TEXT
  5
4CCB
  8
0
  6
CONTINUOUS
 10
105.0060611150887
 20
22.14829932738889
 30
0.0
 40
5.000000000000001
  1
2016.09.05
 41
0.4
  7
TW
  0
TEXT
  5
4CCC
  8
0
  6
CONTINUOUS
 10
105.5045478400782
 20
12.14829932738889
 30
0.0
 40
5.000000000000001
  1
陳   翎
 41
0.5
  7
TW
  0
TEXT
  5
4CCD
  8
0
  6
CONTINUOUS
 10
175.8885809250553
 20
22.14829932738886
 30
0.0
 40
5.000000000000001
  1
NOT/S
 41
0.5
  7
TW
  0
TEXT
  5
4CCF
  8
0
  6
CONTINUOUS
 10
224.0476709116377
 20
2.370339133368902
 30
0.0
 40
5.000000000000001
  1
NP80090
 41
0.5
  7
TW
  0
TEXT
  5
4D16
  8
0
  6
CONTINUOUS
 10
206.2844410483336
 20
13.89647518893111
 30
0.0
 40
5.000000000000001
  1
旋 迴 噴 水 頭
 41
0.5
  7
TW
  0
TEXT
  5
4D17
  8
0
  6
CONTINUOUS
 10
91.63818356075662
 20
12.14829932738889
 30
0.0
 40
5.000000000000001
  1
製 圖
 41
0.5
  7
TW
  0
TEXT
  5
4D18
  8
0
  6
CONTINUOUS
 10
126.6381835607566
 20
12.14829932738889
 30
0.0
 40
5.000000000000001
  1
檢 圖
 41
0.5
  7
TW
  0
TEXT
  5
4D19
  8
0
  6
CONTINUOUS
 10
196.6381835607565
 20
2.148299327388856
 30
0.0
 40
5.000000000000001
  1
圖面番號
 41
0.5
  7
TW
  0
TEXT
  5
4D1A
  8
0
  6
CONTINUOUS
 10
251.6381835607565
 20
2.148299327388856
 30
0.0
 40
5.000000000000001
  1
變更
 41
0.5
  7
TW
  0
INSERT
  5
4D1B
  8
DIM
  2
*X48
 10
0.0
 20
0.0
 30
0.0
  0
ARC
  5
6C59
  8
本體外線
 10
91.79541677103089
 20
115.7999999999989
 30
0.0
 40
0.8
 50
270.0
 51
0.0
  0
ARC
  5
6C5B
  8
本體外線
 10
91.79541677103043
 20
104.199999999999
 30
0.0
 40
0.8
 50
0.0
 51
90.0
  0
LINE
  5
6C5C
  8
本體外線
 10
82.59541677103039
 20
114.018779390244
 30
0.0
 11
82.59541677103084
 21
105.9812206097557
 31
0.0
  0
LINE
  5
6C5D
  8
本體內線
 10
83.09541677103039
 20
113.0000000000001
 30
0.0
 11
82.59541677103039
 21
113.5000000000001
 31
0.0
  0
LINE
  5
6C5F
  8
本體外線
 10
106.8362273924758
 20
119.8149545762238
 30
0.0
 11
96.35460614958578
 21
119.8149545762235
 31
0.0
  0
LINE
  5
6C60
  8
本體外線
 10
106.8362273924758
 20
100.1850454237764
 30
0.0
 11
96.35460614958572
 21
100.1850454237763
 31
0.0
  0
LINE
  5
6C61
  8
本體內線
 10
83.09541677103039
 20
113.0000000000002
 30
0.0
 11
92.59541677103061
 21
113.0
 31
0.0
  0
LINE
  5
6C62
  8
本體外線
 10
91.09541677103084
 20
114.8640000000001
 30
0.0
 11
83.19370901335947
 21
114.6170716325729
 31
0.0
  0
LINE
  5
6C63
  8
本體外線
 62
     4
 10
90.03150958625224
 20
114.2497529004755
 30
0.0
 11
82.59541677103016
 21
114.0173749999998
 31
0.0
  0
LINE
  5
6C64
  8
本體外線
 10
82.59541677103039
 20
114.018779390244
 30
0.0
 11
83.19370901335924
 21
114.6170716325727
 31
0.0
  0
LINE
  5
6C65
  8
本體外線
 10
91.0954167710297
 20
105.1359999999978
 30
0.0
 11
83.19370901335901
 21
105.3829283674266
 31
0.0
  0
LINE
  5
6C66
  8
本體外線
 62
     4
 10
90.03150958625588
 20
105.7502470995222
 30
0.0
 11
82.59541677102925
 21
105.982625
 31
0.0
  0
LINE
  5
6C67
  8
本體內線
 10
83.09541677103039
 20
113.0000000000001
 30
0.0
 11
83.09541677103033
 21
106.9999999999996
 31
0.0
  0
LINE
  5
6C68
  8
本體外線
 10
82.59541677103039
 20
105.9812206097557
 30
0.0
 11
83.19370901335924
 21
105.3829283674271
 31
0.0
  0
LINE
  5
6C6A
  8
本體外線
 10
91.09541677103294
 20
114.999999999999
 30
0.0
 11
91.0954167710297
 21
104.999999999999
 31
0.0
  0
LINE
  5
6C6B
  8
本體外線
 10
91.09541677103107
 20
114.999999999999
 30
0.0
 11
91.79541677103089
 21
114.9999999999987
 31
0.0
  0
LINE
  5
6C6C
  8
本體外線
 10
91.0954167710297
 20
104.999999999999
 30
0.0
 11
91.79541677103043
 21
104.999999999999
 31
0.0
  0
LINE
  5
6C6D
  8
本體外線
 62
     4
 10
90.03150958625247
 20
114.2497529004758
 30
0.0
 11
91.09541677103084
 21
114.8640000000001
 31
0.0
  0
LINE
  5
6C6E
  8
本體外線
 62
     4
 10
90.03150958625247
 20
105.7502470995245
 30
0.0
 11
91.09541677103084
 21
105.1360000000001
 31
0.0
  0
LINE
  5
6C70
  8
本體外線
 10
95.5954167710307
 20
118.4999999999997
 30
0.0
 11
95.59541677103076
 21
101.5
 31
0.0
  0
LINE
  5
6C73
  8
本體外線
 10
93.35460614958518
 20
100.1850454237764
 30
0.0
 11
94.83622739247559
 21
100.1850454237764
 31
0.0
  0
LINE
  5
6C7D
  8
本體外線
 10
107.5954167710307
 20
101.5
 30
0.0
 11
107.5954167710307
 21
118.5
 31
0.0
  0
LINE
  5
6C7F
  8
本體外線
 10
95.59541677103064
 20
118.4999999999996
 30
0.0
 11
95.59541677103061
 21
117.0
 31
0.0
  0
LINE
  5
6C81
  8
本體外線
 10
95.59541677103039
 20
109.9999999999999
 30
0.0
 11
95.59541677103039
 21
101.5
 31
0.0
  0
LINE
  5
6C87
  8
中心線
 10
113.5954167710304
 20
110.0
 30
0.0
 11
81.59541677103061
 21
109.9999999999999
 31
0.0
  0
LINE
  5
6C88
  8
本體外線
 10
95.59541677103073
 20
115.5
 30
0.0
 11
95.59541677103073
 21
109.9999999999999
 31
0.0
  0
LINE
  5
6C8B
  8
本體外線
 10
94.83622739247554
 20
105.0925227118882
 30
0.0
 11
93.35460614958525
 21
105.0925227118882
 31
0.0
  0
ARC
  5
6C8C
  8
本體外線
 10
79.35460614959425
 20
109.9999999999999
 30
0.0
 40
16.24081062143647
 50
342.4120462259971
 51
0.0
  0
ARC
  5
6C8D
  8
本體外線
 10
91.25051809871093
 20
102.6387840678322
 30
0.0
 40
4.344898672319456
 50
325.6157525319595
 51
34.38424746804237
  0
LINE
  5
6C8E
  8
本體外線
 10
95.59541677103039
 20
101.4999999999999
 30
0.0
 11
95.03684441597014
 21
100.507615962789
 31
0.0
  0
LINE
  5
6C8F
  8
本體外線
 10
107.5954167710307
 20
118.5
 30
0.0
 11
106.8362273924758
 21
119.8149545762237
 31
0.0
  0
LINE
  5
6C90
  8
本體外線
 10
106.8362273924758
 20
105.0925227118883
 30
0.0
 11
96.35460614958572
 21
105.0925227118882
 31
0.0
  0
ARC
  5
6C91
  8
本體外線
 10
91.35460614958754
 20
110.0000000000001
 30
0.0
 40
16.2408106214432
 50
342.4120462260038
 51
0.0
  0
ARC
  5
6C92
  8
本體外線
 10
103.2505180987119
 20
102.6387840678323
 30
0.0
 40
4.344898672318863
 50
325.6157525319545
 51
34.3842474680455
  0
LINE
  5
6C93
  8
本體外線
 10
107.5954167710307
 20
101.5
 30
0.0
 11
107.0368444159705
 21
100.5076159627891
 31
0.0
  0
LINE
  5
6C96
  8
本體外線
 10
83.19370901335901
 20
105.3829283674266
 30
0.0
 11
83.19370901335947
 21
114.6170716325729
 31
0.0
  0
LINE
  5
6C9C
  8
本體外線
 10
109.4954167710306
 20
113.6445164288298
 30
0.0
 11
109.4954167710306
 21
106.3554835711728
 31
0.0
  0
ARC
  5
6CA3
  8
本體外線
 10
104.2954167710307
 20
110.0000000000013
 30
0.0
 40
6.35
 50
301.3111269331479
 51
324.9745948331294
  0
ARC
  5
6CA4
  8
本體外線
 10
104.2954167710307
 20
110.0000000000013
 30
0.0
 40
6.35
 50
35.02540516687058
 51
58.68887306685207
  0
ARC
  5
6CDC
  8
本體外線
 10
96.94031544334986
 20
102.6387840678322
 30
0.0
 40
4.344898672319456
 50
145.6157525319576
 51
214.3842474680403
  0
ARC
  5
6CDE
  8
本體外線
 10
108.8362273924665
 20
109.9999999999999
 30
0.0
 40
16.24081062143647
 50
180.0
 51
197.5879537740028
  0
LINE
  5
6CDF
  8
本體外線
 10
92.59541677103039
 20
101.4999999999999
 30
0.0
 11
93.15398912609064
 21
100.507615962789
 31
0.0
  0
LINE
  5
6CE0
  8
本體外線
 10
93.35460614958518
 20
119.8149545762234
 30
0.0
 11
94.83622739247559
 21
119.8149545762234
 31
0.0
  0
LINE
  5
6CE1
  8
本體外線
 10
94.83622739247554
 20
114.9074772881117
 30
0.0
 11
93.35460614958525
 21
114.9074772881117
 31
0.0
  0
ARC
  5
6CE2
  8
本體外線
 10
79.35460614959425
 20
109.9999999999999
 30
0.0
 40
16.24081062143647
 50
0.0
 51
17.58795377400287
  0
ARC
  5
6CE3
  8
本體外線
 10
91.25051809871093
 20
117.3612159321676
 30
0.0
 40
4.344898672319456
 50
325.6157525319576
 51
34.38424746804045
  0
LINE
  5
6CE4
  8
本體外線
 10
95.59541677103039
 20
118.4999999999999
 30
0.0
 11
95.03684441597014
 21
119.4923840372109
 31
0.0
  0
ARC
  5
6CE5
  8
本體外線
 10
96.94031544334986
 20
117.3612159321676
 30
0.0
 40
4.344898672319456
 50
145.6157525319595
 51
214.3842474680424
  0
ARC
  5
6CE6
  8
本體外線
 10
108.8362273924665
 20
109.9999999999999
 30
0.0
 40
16.24081062143647
 50
162.4120462259971
 51
180.0
  0
LINE
  5
6CE7
  8
本體外線
 10
92.59541677103039
 20
118.4999999999999
 30
0.0
 11
93.15398912609064
 21
119.4923840372109
 31
0.0
  0
LINE
  5
6CE8
  8
CONTOUR
 10
92.59541677103039
 20
118.4999999999999
 30
0.0
 11
92.59541677103039
 21
101.4999999999999
 31
0.0
  0
ARC
  5
6CE9
  8
本體外線
 10
111.8362273924739
 20
110.0000000000001
 30
0.0
 40
16.2408106214432
 50
180.0
 51
197.5879537739961
  0
ARC
  5
6CEA
  8
本體外線
 10
99.94031544334962
 20
102.6387840678323
 30
0.0
 40
4.344898672318863
 50
145.6157525319545
 51
214.3842474680454
  0
LINE
  5
6CEB
  8
本體外線
 10
95.59541677103076
 20
101.5
 30
0.0
 11
96.153989126091
 21
100.5076159627891
 31
0.0
  0
ARC
  5
6CEC
  8
本體外線
 10
111.8362273924739
 20
109.9999999999997
 30
0.0
 40
16.2408106214432
 50
162.4120462260038
 51
180.0
  0
ARC
  5
6CED
  8
本體外線
 10
99.94031544334962
 20
117.3612159321675
 30
0.0
 40
4.344898672318863
 50
145.6157525319547
 51
214.3842474680453
  0
LINE
  5
6CEE
  8
本體外線
 10
95.59541677103076
 20
118.4999999999998
 30
0.0
 11
96.153989126091
 21
119.4923840372106
 31
0.0
  0
LINE
  5
6CEF
  8
本體外線
 10
106.8362273924758
 20
114.9074772881116
 30
0.0
 11
96.35460614958572
 21
114.9074772881117
 31
0.0
  0
ARC
  5
6CF0
  8
本體外線
 10
91.35460614958754
 20
109.9999999999999
 30
0.0
 40
16.2408106214432
 50
0.0
 51
17.58795377399616
  0
ARC
  5
6CF1
  8
本體外線
 10
103.2505180987119
 20
117.3612159321677
 30
0.0
 40
4.344898672318863
 50
325.6157525319536
 51
34.38424746804648
  0
LINE
  5
6F1F
  8
CONTOUR
 10
112.5954167710304
 20
112.7999999999999
 30
0.0
 11
112.5954167710304
 21
107.1999999999999
 31
0.0
  0
LINE
  5
6F20
  8
CONTOUR
 10
109.4954167710306
 20
113.0000000000013
 30
0.0
 11
112.395416771029
 21
113.0000000000013
 31
0.0
  0
LINE
  5
6F21
  8
CONTOUR
 10
109.4954167710306
 20
107.0000000000013
 30
0.0
 11
112.3954167710318
 21
107.0000000000013
 31
0.0
  0
LINE
  5
6F22
  8
CONTOUR
 10
112.5954167710304
 20
107.1999999999999
 30
0.0
 11
112.3954167710304
 21
106.9999999999999
 31
0.0
  0
LINE
  5
6F23
  8
CONTOUR
 10
112.3954167710304
 20
112.9999999999999
 30
0.0
 11
112.5954167710304
 21
112.7999999999999
 31
0.0
  0
LINE
  5
6F2A
  8
本體內線
 10
112.0954167710304
 20
111.9999999999999
 30
0.0
 11
112.5954167710304
 21
112.4999999999999
 31
0.0
  0
LINE
  5
6F30
  8
本體內線
 10
112.0954167710304
 20
107.9999999999999
 30
0.0
 11
112.5954167710304
 21
107.4999999999999
 31
0.0
  0
LINE
  5
6F31
  8
本體內線
 10
112.0954167710304
 20
107.9999999999999
 30
0.0
 11
112.0954167710304
 21
111.9999999999999
 31
0.0
  0
LINE
  5
6F34
  8
本體內線
 10
112.0954167710318
 20
112.0000000000013
 30
0.0
 11
109.4954167710307
 21
112.0000000000013
 31
0.0
  0
LINE
  5
6F35
  8
本體內線
 10
112.095416771029
 20
108.0000000000013
 30
0.0
 11
109.4954167710306
 21
108.0000000000013
 31
0.0
  0
LINE
  5
6F37
  8
中心線
 10
104.2954167710307
 20
110.0000000000013
 30
0.0
 11
110.3161842965548
 21
114.2157868071815
 31
0.0
  0
LINE
  5
6F38
  8
中心線
 10
104.2954167710307
 20
110.0000000000013
 30
0.0
 11
110.3161842965548
 21
105.7842131928211
 31
0.0
  0
LINE
  5
6FB8
  8
本體內線
 10
83.09541677103039
 20
106.9999999999997
 30
0.0
 11
82.59541677103039
 21
106.4999999999997
 31
0.0
  0
LINE
  5
6FB9
  8
本體內線
 10
83.09541677103039
 20
106.9999999999996
 30
0.0
 11
92.59541677103061
 21
106.9999999999998
 31
0.0
  0
DIMENSION
  5
6FE6
  8
\M+19557\M+19290\M+190FC
  2
*D22
 10
112.5954167710304
 20
128.5821551944429
 30
0.0
 11
102.5954167710304
 21
130.6821551944429
 31
0.0
 70
    32
 13
92.59541677103039
 23
118.4999999999999
 33
0.0
 14
112.5954167710304
 24
112.7999999999999
 34
0.0
  0
DIMENSION
  5
6FFE
  8
\M+19557\M+19290\M+190FC
  2
*D23
 10
82.59541677103039
 20
128.5821551944429
 30
0.0
 11
87.59541677103039
 21
130.6821551944429
 31
0.0
 70
    32
 13
92.59541677103039
 23
118.4999999999999
 33
0.0
 14
82.59541677103039
 24
114.018779390244
 34
0.0
  0
DIMENSION
  5
70E2
  8
\M+19557\M+19290\M+190FC
  2
*D24
 10
119.7432733039234
 20
108.0000000000013
 30
0.0
 11
119.7432733039233
 21
94.200000000004
 31
0.0
 70
   160
  1
%%c<>
 13
112.0954167710304
 23
111.9999999999999
 33
0.0
 14
112.0954167710304
 24
107.9999999999999
 34
0.0
 50
90.0
  0
DIMENSION
  5
72C6
  8
\M+19557\M+19290\M+190FC
  2
*D25
 10
81.59541677103061
 20
109.9999999999999
 30
0.0
 11
134.0844353046879
 21
100.6075585344449
 31
0.0
 70
    34
 13
104.2954167710307
 23
110.0000000000013
 33
0.0
 14
110.3161842965548
 24
105.7842131928211
 34
0.0
 15
113.5954167710304
 25
110.0
 35
0.0
 16
134.9038325704761
 26
96.79681822412913
 36
0.0
  0
INSERT
  5
7378
  8
\M+19557\M+19290\M+190FC
  2
*X49
 10
0.0
 20
0.0
 30
0.0
  0
TEXT
  5
7398
  8
\M+19557\M+19290\M+190FC
  6
CONTINUOUS
 62
     3
 10
68.44040753557006
 20
123.3761511371017
 30
0.0
 40
2.5
  1
PT1/8
  0
CIRCLE
  5
73F3
  8
本體外線
 10
179.4745223282154
 20
110.0
 30
0.0
 40
2.500000000001336
  0
LINE
  5
73F5
  8
中心線
 10
179.4745223282154
 20
99.03034488539696
 30
0.0
 11
179.4745223282154
 21
120.969655114603
 31
0.0
  0
CIRCLE
  5
73F9
  8
本體外線
 10
179.4745223282154
 20
110.0
 30
0.0
 40
3.644516428829832
  0
CIRCLE
  5
73FA
  8
本體外線
 10
179.4745223282154
 20
110.0
 30
0.0
 40
5.425172808308915
  0
CIRCLE
  5
73FB
  8
本體外線
 10
179.4745223282154
 20
110.0
 30
0.0
 40
8.500000000000028
  0
POLYLINE
  5
73FC
  8
本體外線
 66
     1
 10
0.0
 20
0.0
 30
0.0
 70
     1
  0
VERTEX
  5
9782
  8
本體外線
 10
179.4745223282154
 20
119.8149545762238
 30
0.0
  0
VERTEX
  5
9783
  8
本體外線
 10
170.9745223282153
 20
114.9074772881119
 30
0.0
  0
VERTEX
  5
9784
  8
本體外線
 10
170.9745223282153
 20
105.0925227118881
 30
0.0
  0
VERTEX
  5
9785
  8
本體外線
 10
179.4745223282154
 20
100.1850454237762
 30
0.0
  0
VERTEX
  5
9786
  8
本體外線
 10
187.9745223282156
 20
105.0925227118881
 30
0.0
  0
VERTEX
  5
9787
  8
本體外線
 10
187.9745223282156
 20
114.9074772881119
 30
0.0
  0
SEQEND
  5
97A6
  8
本體外線
  0
LINE
  5
73FF
  8
中心線
 10
169.9745223282153
 20
110.0
 30
0.0
 11
188.9745223282156
 21
110.0
 31
0.0
  0
CIRCLE
  5
7400
  8
本體外線
 10
179.4745223282154
 20
110.0
 30
0.0
 40
2.0
  0
DIMENSION
  5
7409
  8
\M+19557\M+19290\M+190FC
  2
*D26
 10
187.9745223282156
 20
128.5821551944429
 30
0.0
 11
179.4745223282154
 21
130.6821551944429
 31
0.0
 70
    32
 13
170.9745223282153
 23
114.9074772881119
 33
0.0
 14
187.9745223282156
 24
114.9074772881119
 34
0.0
  0
TEXT
  5
742C
  8
0
  6
CONTINUOUS
 10
241.5343346053017
 20
13.89647518893111
 30
0.0
 40
5.000000000000001
  1
NNPT1/8H-20
 41
0.5
  7
TW
  0
DIMENSION
  5
7485
  8
\M+19557\M+19290\M+190FC
  2
*D27
 10
75.40835087417652
 20
106.9999999999996
 30
0.0
 11
73.3083508741765
 21
109.9999999999999
 31
0.0
 70
    32
  1
%%c<>
 13
83.09541677103039
 23
113.0000000000002
 33
0.0
 14
83.0954167710305
 24
106.9999999999996
 34
0.0
 50
90.0
  0
LINE
  5
796B
  8
_框線
 10
368.2828280725583
 20
11.51515162112672
 30
0.0
 11
558.2828280725582
 21
11.51515162112677
 31
0.0
  0
LINE
  5
796C
  8
_框線
 10
368.2828280725583
 20
30.70707081304591
 30
0.0
 11
558.2828280725582
 21
30.70707081304591
 31
0.0
  0
LINE
  5
796D
  8
0
 62
     7
 39
3.838383838383838
 10
417.1387477860527
 20
26.89074736103186
 30
0.0
 11
422.2551250890059
 21
28.16984168677017
 31
0.0
  0
TEXT
  5
796E
  8
0
  6
CONTINUOUS
 10
383.3341027214273
 20
2.256713640909069
 30
0.0
 40
6.000000040560058
  1
日機株式\U+4F1A社
 41
1.5
  0
LINE
  5
796F
  8
0
 62
     7
 10
417.1387477860527
 20
24.33255870955524
 30
0.0
 11
422.2551250890059
 21
23.05346438381693
 31
0.0
  0
LINE
  5
7970
  8
0
 62
     7
 10
416.4025435153271
 20
25.61165303529355
 30
0.0
 11
422.7144494623699
 21
25.61165303529355
 31
0.0
  0
LINE
  5
7971
  8
_框線
 10
368.2828280725583
 20
21.11111121708631
 30
0.0
 11
460.4040401937702
 21
21.11111121708631
 31
0.0
  0
LINE
  5
7972
  8
_框線
 10
368.2828280725583
 20
30.70707081304591
 30
0.0
 11
368.2828280725583
 21
0.0000001059752037
 31
0.0
  0
TEXT
  5
7973
  8
0
  6
CONTINUOUS
 10
370.2952904393331
 20
23.45859519923793
 30
0.0
 40
5.000000033800048
  1
日 付
 41
0.5
  0
TEXT
  5
7974
  8
0
  6
CONTINUOUS
 10
370.4356487325501
 20
13.86172688536002
 30
0.0
 40
5.000000033800048
  1
製 \U+56F3
 41
0.5
  0
LINE
  5
7975
  8
_框線
 10
410.5050502947805
 20
21.1111112170862
 30
0.0
 11
410.5050502947805
 21
11.51515162112672
 31
0.0
  0
LINE
  5
7976
  8
_框線
 10
398.989898779629
 20
30.70707081304591
 30
0.0
 11
398.989898779629
 21
11.51515162112672
 31
0.0
  0
LINE
  5
7977
  8
_框線
 10
379.7979795877098
 20
30.70707081304591
 30
0.0
 11
379.7979795877098
 21
11.51515162112672
 31
0.0
  0
CIRCLE
  5
7978
  8
0
 62
     7
 10
408.8246346687536
 20
25.61165303529344
 30
0.0
 40
2.558188651476676
  0
LINE
  5
7979
  8
0
 62
     7
 10
408.8246346687536
 20
22.42250847419732
 30
0.0
 11
408.8246346687536
 21
28.59819821516766
 31
0.0
  0
TEXT
  5
797A
  8
0
  6
CONTINUOUS
 10
402.1565002287358
 20
13.44092912285778
 30
0.0
 40
5.000000033800048
  1
\U+691C \U+56F3
 41
0.5
  0
LINE
  5
797B
  8
0
 62
     7
 10
405.6276459309934
 20
25.61165303529344
 30
0.0
 11
412.21257632232
 21
25.61165303529355
 31
0.0
  0
CIRCLE
  5
797C
  8
0
 62
     7
 10
408.8246346687536
 20
25.61165303529344
 30
0.0
 40
1.279094325738338
  0
LINE
  5
797D
  8
0
 62
     7
 10
417.1387477860527
 20
24.33255870955524
 30
0.0
 11
417.1387477860527
 21
26.89074736103186
 31
0.0
  0
TEXT
  5
797E
  8
0
  6
CONTINUOUS
 10
461.9941152286252
 20
5.702682268366561
 30
0.0
 40
5.000000033800048
  1
\U+56F3  面  番  \U+53F7
 41
0.5
  0
TEXT
  5
797F
  8
0
  6
CONTINUOUS
 10
462.667088443672
 20
23.90494100217671
 30
0.0
 40
5.000000033800048
  1
品  名
 41
0.5
  0
LINE
  5
7980
  8
_框線
 10
460.4040401937705
 20
30.70707081304591
 30
0.0
 11
460.4040401937705
 21
0.183322863933667
 31
0.0
  0
LINE
  5
7981
  8
_框線
 10
429.6969694866997
 20
30.70707081304591
 30
0.0
 11
429.6969694866997
 21
11.51515162112672
 31
0.0
  0
LINE
  5
7982
  8
_框線
 10
441.2121210018512
 20
30.70707081304591
 30
0.0
 11
441.2121210018512
 21
11.51515162112672
 31
0.0
  0
LINE
  5
7983
  8
0
 62
     7
 10
422.2551250890059
 20
23.05346438381693
 30
0.0
 11
422.2551250890059
 21
28.16984168677017
 31
0.0
  0
TEXT
  5
7984
  8
0
  6
CONTINUOUS
 10
431.9123460684642
 20
23.59886056973334
 30
0.0
 40
5.000000033800048
  1
尺 度
 41
0.5
  0
TEXT
  5
7985
  8
0
  6
CONTINUOUS
 10
432.193060042754
 20
13.44092912285778
 30
0.0
 40
5.000000033800048
  1
承 認
 41
0.5
  0
LINE
  5
7986
  8
_框線
 10
515.315537346624
 20
30.70707081304591
 30
0.0
 11
515.3155373466238
 21
11.51515162112672
 31
0.0
  0
LINE
  5
7987
  8
_框線
 10
532.3737371634675
 20
11.52385542365798
 30
0.0
 11
532.3737371634675
 21
0.0000001059752037
 31
0.0
  0
TEXT
  5
7988
  8
0
  6
CONTINUOUS
 10
534.0390661973429
 20
5.741579455020482
 30
0.0
 40
5.000000033800048
  1
\U+5909更
 41
0.5
  0
TEXT
  5
7989
  8
0
  6
CONTINUOUS
 10
517.5759380985985
 20
23.69268747950113
 30
0.0
 40
5.000000033800048
  1
型  番
 41
0.5
  0
POLYLINE
  5
798A
  8
_框線
 66
     1
 10
0.0
 20
0.0
 30
0.0
 70
     1
  0
VERTEX
  5
9788
  8
_框線
 10
279.9999997897299
 20
0.0000001059751469
 30
0.0
  0
VERTEX
  5
9789
  8
_框線
 10
558.2828280725582
 20
0.0000001059751469
 30
0.0
  0
VERTEX
  5
978A
  8
_框線
 10
558.2828280725582
 20
190.0000001059751
 30
0.0
  0
VERTEX
  5
978B
  8
_框線
 10
279.9999997897299
 20
190.0000001059751
 30
0.0
  0
SEQEND
  5
97A7
  8
_框線
  0
TEXT
  5
79AB
  8
0
  6
CONTINUOUS
 10
381.8104419544846
 20
23.45859519923793
 30
0.0
 40
5.000000033800048
  1
2016.09.05
 41
0.4
  0
TEXT
  5
79AC
  8
0
  6
CONTINUOUS
 10
445.5631247556917
 20
23.59886056973334
 30
0.0
 40
5.000000033800048
  1
NOT/S
 41
0.5
  0
TEXT
  5
79AD
  8
0
  6
CONTINUOUS
 10
384.220699618593
 20
13.86172688536002
 30
0.0
 40
5.000000033800048
  1
陳   翎
 41
0.5
  0
TEXT
  5
79AE
  8
0
  6
CONTINUOUS
 10
493.2871868553084
 20
2.98754011697173
 30
0.0
 40
5.000000033800048
  1
NP80090
 41
0.5
  0
TEXT
  5
79AF
  8
0
  6
CONTINUOUS
 10
462.0514819619863
 20
13.29560485045312
 30
0.0
 40
5.000000033800048
  1
\U+30DD\U+30A4\U+30F3\U+30C8\U+30D5\U+30A3\U+30C3\U+30C8 \U+30CE\U+30BA\U+30EB
 41
0.5
  0
TEXT
  5
79B0
  8
0
  6
CONTINUOUS
 10
517.3410523961591
 20
13.2956048504528
 30
0.0
 40
5.000000033800048
  1
NNPT1/8H-20
 41
0.5
  0
DIMENSION
  5
84A0
  8
\M+19557\M+19290\M+190FC
  2
*D33
 10
110.3161842965548
 20
114.2157868071815
 30
0.0
 11
134.0917155524427
 21
119.3947369188561
 31
0.0
 70
    34
 13
113.5954167710304
 23
110.0
 33
0.0
 14
81.59541677103061
 24
109.9999999999999
 34
0.0
 15
104.2954167710307
 25
110.0000000000013
 35
0.0
 16
136.9488729444683
 26
116.7423963520879
 36
0.0
  0
CIRCLE
  5
851D
  8
本體外線
 10
179.4745223282154
 20
110.0
 30
0.0
 40
3.000000000001307
  0
DIMENSION
  5
853F
  8
\M+19557\M+19290\M+190FC
  2
*D34
 10
129.7432733039193
 20
107.0000000000013
 30
0.0
 11
129.7432733039192
 21
110.0000000000013
 31
0.0
 70
   160
  1
%%c<>
 13
112.395416771029
 23
113.0000000000013
 33
0.0
 14
112.3954167710318
 24
107.0000000000013
 34
0.0
 50
90.0
  0
TEXT
  5
8746
  8
0
  6
CONTINUOUS
 10
136.5045478400782
 20
12.14829932738886
 30
0.0
 40
5.000000000000001
  1
  林 彥 旭
 41
0.5
  7
TW
  0
TEXT
  5
8C70
  8
0
  6
CONTINUOUS
 10
414.9277703256637
 20
13.86172688536002
 30
0.0
 40
5.000000033800048
  1
林 \U+5F66 旭
 41
0.5
  0
ARC
  5
94EC
  8
本體外線
 10
370.0782448435891
 20
115.8000001059741
 30
0.0
 40
0.8
 50
270.0
 51
0.0
  0
ARC
  5
94ED
  8
本體外線
 10
370.0782448435886
 20
104.2000001059742
 30
0.0
 40
0.8
 50
0.0
 51
90.0
  0
LINE
  5
94EE
  8
本體外線
 10
360.8782448435886
 20
114.0187794962192
 30
0.0
 11
360.878244843589
 21
105.9812207157309
 31
0.0
  0
LINE
  5
94EF
  8
本體內線
 10
361.3782448435886
 20
113.0000001059753
 30
0.0
 11
360.8782448435886
 21
113.5000001059753
 31
0.0
  0
LINE
  5
94F0
  8
本體外線
 10
385.119055465034
 20
119.8149546821989
 30
0.0
 11
374.637434222144
 21
119.8149546821987
 31
0.0
  0
LINE
  5
94F1
  8
本體外線
 10
385.119055465034
 20
100.1850455297515
 30
0.0
 11
374.6374342221439
 21
100.1850455297515
 31
0.0
  0
LINE
  5
94F2
  8
本體內線
 10
361.3782448435886
 20
113.0000001059753
 30
0.0
 11
370.8782448435888
 21
113.0000001059751
 31
0.0
  0
LINE
  5
94F3
  8
本體外線
 10
369.378244843589
 20
114.8640001059753
 30
0.0
 11
361.4765370859176
 21
114.617071738548
 31
0.0
  0
LINE
  5
94F4
  8
本體外線
 62
     4
 10
368.3143376588104
 20
114.2497530064507
 30
0.0
 11
360.8782448435883
 21
114.0173751059749
 31
0.0
  0
LINE
  5
94F5
  8
本體外線
 10
360.8782448435886
 20
114.0187794962192
 30
0.0
 11
361.4765370859174
 21
114.6170717385478
 31
0.0
  0
LINE
  5
94F6
  8
本體外線
 10
369.3782448435879
 20
105.136000105973
 30
0.0
 11
361.4765370859172
 21
105.3829284734018
 31
0.0
  0
LINE
  5
94F7
  8
本體外線
 62
     4
 10
368.3143376588141
 20
105.7502472054973
 30
0.0
 11
360.8782448435874
 21
105.9826251059751
 31
0.0
  0
LINE
  5
94F8
  8
本體內線
 10
361.3782448435886
 20
113.0000001059753
 30
0.0
 11
361.3782448435885
 21
107.0000001059747
 31
0.0
  0
LINE
  5
94F9
  8
本體外線
 10
360.8782448435886
 20
105.9812207157309
 30
0.0
 11
361.4765370859174
 21
105.3829284734022
 31
0.0
  0
LINE
  5
94FA
  8
本體外線
 10
369.3782448435911
 20
115.0000001059741
 30
0.0
 11
369.3782448435879
 21
105.0000001059741
 31
0.0
  0
LINE
  5
94FB
  8
本體外線
 10
369.3782448435892
 20
115.0000001059741
 30
0.0
 11
370.0782448435891
 21
115.0000001059739
 31
0.0
  0
LINE
  5
94FC
  8
本體外線
 10
369.3782448435879
 20
105.0000001059741
 30
0.0
 11
370.0782448435886
 21
105.0000001059741
 31
0.0
  0
LINE
  5
94FD
  8
本體外線
 62
     4
 10
368.3143376588106
 20
114.2497530064509
 30
0.0
 11
369.378244843589
 21
114.8640001059753
 31
0.0
  0
LINE
  5
94FE
  8
本體外線
 62
     4
 10
368.3143376588106
 20
105.7502472054996
 30
0.0
 11
369.378244843589
 21
105.1360001059752
 31
0.0
  0
LINE
  5
94FF
  8
本體外線
 10
373.8782448435888
 20
118.5000001059748
 30
0.0
 11
373.878244843589
 21
101.5000001059752
 31
0.0
  0
LINE
  5
9500
  8
本體外線
 10
371.6374342221434
 20
100.1850455297515
 30
0.0
 11
373.1190554650337
 21
100.1850455297516
 31
0.0
  0
LINE
  5
9501
  8
本體外線
 10
385.8782448435889
 20
101.5000001059751
 30
0.0
 11
385.8782448435889
 21
118.5000001059751
 31
0.0
  0
LINE
  5
9502
  8
本體外線
 10
373.8782448435888
 20
118.5000001059747
 30
0.0
 11
373.8782448435888
 21
117.0000001059751
 31
0.0
  0
LINE
  5
9503
  8
本體外線
 10
373.8782448435886
 20
110.000000105975
 30
0.0
 11
373.8782448435886
 21
101.5000001059751
 31
0.0
  0
LINE
  5
9504
  8
中心線
 10
391.8782448435886
 20
110.0000001059751
 30
0.0
 11
359.8782448435888
 21
110.000000105975
 31
0.0
  0
LINE
  5
9505
  8
本體外線
 10
373.8782448435889
 20
115.5000001059752
 30
0.0
 11
373.8782448435889
 21
110.000000105975
 31
0.0
  0
LINE
  5
9506
  8
本體外線
 10
373.1190554650337
 20
105.0925228178633
 30
0.0
 11
371.6374342221434
 21
105.0925228178633
 31
0.0
  0
ARC
  5
9507
  8
本體外線
 10
357.6374342221524
 20
110.0000001059751
 30
0.0
 40
16.24081062143647
 50
342.4120462259967
 51
0.0
  0
ARC
  5
9508
  8
本體外線
 10
369.5333461712691
 20
102.6387841738074
 30
0.0
 40
4.344898672319456
 50
325.6157525319598
 51
34.38424746804146
  0
LINE
  5
9509
  8
本體外線
 10
373.8782448435886
 20
101.5000001059751
 30
0.0
 11
373.3196724885283
 21
100.5076160687641
 31
0.0
  0
LINE
  5
950A
  8
本體外線
 10
385.8782448435889
 20
118.5000001059751
 30
0.0
 11
385.119055465034
 21
119.8149546821989
 31
0.0
  0
LINE
  5
950B
  8
本體外線
 10
385.119055465034
 20
105.0925228178634
 30
0.0
 11
374.6374342221439
 21
105.0925228178633
 31
0.0
  0
ARC
  5
950C
  8
本體外線
 10
369.6374342221457
 20
110.0000001059752
 30
0.0
 40
16.2408106214432
 50
342.4120462260038
 51
0.0
  0
ARC
  5
950D
  8
本體外線
 10
381.5333461712701
 20
102.6387841738074
 30
0.0
 40
4.344898672318863
 50
325.6157525319546
 51
34.38424746804543
  0
LINE
  5
950E
  8
本體外線
 10
385.8782448435889
 20
101.5000001059751
 30
0.0
 11
385.3196724885287
 21
100.5076160687643
 31
0.0
  0
LINE
  5
950F
  8
本體外線
 10
361.4765370859172
 20
105.3829284734018
 30
0.0
 11
361.4765370859176
 21
114.617071738548
 31
0.0
  0
LINE
  5
9510
  8
本體外線
 10
387.7782448435888
 20
113.6445165348049
 30
0.0
 11
387.7782448435888
 21
106.3554836771479
 31
0.0
  0
LINE
  5
9511
  8
CONTOUR
 10
390.8782448435886
 20
112.8000001059751
 30
0.0
 11
390.8782448435886
 21
107.2000001059751
 31
0.0
  0
LINE
  5
9512
  8
CONTOUR
 10
390.6782448435886
 20
113.000000105975
 30
0.0
 11
390.8782448435886
 21
112.8000001059751
 31
0.0
  0
ARC
  5
9513
  8
本體外線
 10
382.5782448435889
 20
110.0000001059764
 30
0.0
 40
6.35
 50
301.3111269331479
 51
324.9745948331294
  0
ARC
  5
9514
  8
本體外線
 10
382.5782448435889
 20
110.0000001059764
 30
0.0
 40
6.35
 50
35.02540516687059
 51
58.68887306685207
  0
ARC
  5
9515
  8
本體外線
 10
375.223143515908
 20
102.6387841738074
 30
0.0
 40
4.344898672319456
 50
145.6157525319586
 51
214.38424746804
  0
ARC
  5
9516
  8
本體外線
 10
387.1190554650247
 20
110.0000001059751
 30
0.0
 40
16.24081062143647
 50
180.0
 51
197.5879537740032
  0
LINE
  5
9517
  8
本體外線
 10
370.8782448435886
 20
101.5000001059751
 30
0.0
 11
371.4368171986488
 21
100.5076160687641
 31
0.0
  0
LINE
  5
9518
  8
本體外線
 10
371.6374342221434
 20
119.8149546821986
 30
0.0
 11
373.1190554650337
 21
119.8149546821986
 31
0.0
  0
LINE
  5
9519
  8
本體外線
 10
373.1190554650337
 20
114.9074773940868
 30
0.0
 11
371.6374342221434
 21
114.9074773940868
 31
0.0
  0
ARC
  5
951A
  8
本體外線
 10
357.6374342221524
 20
110.0000001059751
 30
0.0
 40
16.24081062143647
 50
0.0
 51
17.58795377400325
  0
ARC
  5
951B
  8
本體外線
 10
369.5333461712691
 20
117.3612160381427
 30
0.0
 40
4.344898672319456
 50
325.6157525319585
 51
34.38424746804015
  0
LINE
  5
951C
  8
本體外線
 10
373.8782448435886
 20
118.500000105975
 30
0.0
 11
373.3196724885283
 21
119.492384143186
 31
0.0
  0
ARC
  5
951D
  8
本體外線
 10
375.223143515908
 20
117.3612160381428
 30
0.0
 40
4.344898672319456
 50
145.6157525319599
 51
214.3842474680415
  0
ARC
  5
951E
  8
本體外線
 10
387.1190554650247
 20
110.0000001059751
 30
0.0
 40
16.24081062143647
 50
162.4120462259967
 51
180.0
  0
LINE
  5
951F
  8
本體外線
 10
370.8782448435886
 20
118.500000105975
 30
0.0
 11
371.4368171986488
 21
119.492384143186
 31
0.0
  0
LINE
  5
9520
  8
CONTOUR
 10
370.8782448435886
 20
118.500000105975
 30
0.0
 11
370.8782448435886
 21
101.5000001059751
 31
0.0
  0
ARC
  5
9521
  8
本體外線
 10
390.1190554650321
 20
110.0000001059752
 30
0.0
 40
16.2408106214432
 50
180.0
 51
197.5879537739961
  0
ARC
  5
9522
  8
本體外線
 10
378.2231435159078
 20
102.6387841738074
 30
0.0
 40
4.344898672318863
 50
145.6157525319546
 51
214.3842474680454
  0
LINE
  5
9523
  8
本體外線
 10
373.878244843589
 20
101.5000001059751
 30
0.0
 11
374.4368171986492
 21
100.5076160687643
 31
0.0
  0
ARC
  5
9524
  8
本體外線
 10
390.1190554650321
 20
110.0000001059749
 30
0.0
 40
16.2408106214432
 50
162.4120462260038
 51
180.0
  0
ARC
  5
9525
  8
本體外線
 10
378.2231435159078
 20
117.3612160381427
 30
0.0
 40
4.344898672318863
 50
145.6157525319547
 51
214.3842474680453
  0
LINE
  5
9526
  8
本體外線
 10
373.878244843589
 20
118.5000001059749
 30
0.0
 11
374.4368171986492
 21
119.4923841431858
 31
0.0
  0
LINE
  5
9527
  8
本體外線
 10
385.119055465034
 20
114.9074773940868
 30
0.0
 11
374.6374342221439
 21
114.9074773940868
 31
0.0
  0
ARC
  5
9528
  8
本體外線
 10
369.6374342221457
 20
110.0000001059751
 30
0.0
 40
16.2408106214432
 50
0.0
 51
17.58795377399616
  0
ARC
  5
9529
  8
本體外線
 10
381.5333461712701
 20
117.3612160381429
 30
0.0
 40
4.344898672318863
 50
325.6157525319539
 51
34.38424746804609
  0
LINE
  5
952A
  8
CONTOUR
 10
387.7782448435888
 20
113.0000001059764
 30
0.0
 11
390.6782448435872
 21
113.0000001059764
 31
0.0
  0
LINE
  5
952B
  8
CONTOUR
 10
387.7782448435888
 20
107.0000001059764
 30
0.0
 11
390.6782448435899
 21
107.0000001059764
 31
0.0
  0
LINE
  5
952C
  8
CONTOUR
 10
390.8782448435886
 20
107.2000001059751
 30
0.0
 11
390.6782448435886
 21
107.0000001059751
 31
0.0
  0
LINE
  5
952D
  8
本體內線
 10
390.3782448435886
 20
112.0000001059751
 30
0.0
 11
390.8782448435886
 21
112.5000001059751
 31
0.0
  0
LINE
  5
952E
  8
本體內線
 10
390.3782448435886
 20
108.000000105975
 30
0.0
 11
390.8782448435886
 21
107.500000105975
 31
0.0
  0
LINE
  5
952F
  8
本體內線
 10
390.3782448435886
 20
108.0000001059751
 30
0.0
 11
390.3782448435886
 21
112.0000001059751
 31
0.0
  0
LINE
  5
9530
  8
本體內線
 10
390.3782448435899
 20
112.0000001059765
 30
0.0
 11
387.7782448435888
 21
112.0000001059765
 31
0.0
  0
LINE
  5
9531
  8
本體內線
 10
390.3782448435871
 20
108.0000001059765
 30
0.0
 11
387.7782448435888
 21
108.0000001059764
 31
0.0
  0
LINE
  5
9532
  8
中心線
 10
382.5782448435889
 20
110.0000001059764
 30
0.0
 11
388.599012369113
 21
114.2157869131566
 31
0.0
  0
LINE
  5
9533
  8
中心線
 10
382.5782448435889
 20
110.0000001059764
 30
0.0
 11
388.599012369113
 21
105.7842132987962
 31
0.0
  0
LINE
  5
9534
  8
本體內線
 10
361.3782448435886
 20
107.0000001059748
 30
0.0
 11
360.8782448435886
 21
106.5000001059748
 31
0.0
  0
LINE
  5
9535
  8
本體內線
 10
361.3782448435886
 20
107.0000001059747
 30
0.0
 11
370.8782448435888
 21
107.0000001059749
 31
0.0
  0
DIMENSION
  5
9536
  8
\M+19557\M+19290\M+190FC
  2
*D43
 10
390.8782448435886
 20
128.5821553004181
 30
0.0
 11
380.8782448435886
 21
130.6821553004181
 31
0.0
 70
    32
 13
370.8782448435886
 23
118.500000105975
 33
0.0
 14
390.8782448435886
 24
112.8000001059751
 34
0.0
  0
DIMENSION
  5
9539
  8
\M+19557\M+19290\M+190FC
  2
*D44
 10
360.8782448435886
 20
128.5821553004181
 30
0.0
 11
365.8782448435886
 21
130.6821553004181
 31
0.0
 70
    32
 13
370.8782448435886
 23
118.500000105975
 33
0.0
 14
360.8782448435886
 24
114.0187794962192
 34
0.0
  0
DIMENSION
  5
953C
  8
\M+19557\M+19290\M+190FC
  2
*D45
 10
398.0261013764815
 20
108.0000001059751
 30
0.0
 11
398.0261013764815
 21
94.20000010597914
 31
0.0
 70
   160
  1
%%c<>
 13
390.3782448435886
 23
112.0000001059751
 33
0.0
 14
390.3782448435886
 24
108.0000001059751
 34
0.0
 50
90.0
  0
DIMENSION
  5
953F
  8
\M+19557\M+19290\M+190FC
  2
*D46
 10
359.8782448435888
 20
110.000000105975
 30
0.0
 11
412.3672633772461
 21
100.6075586404201
 31
0.0
 70
    34
 13
382.5782448435889
 23
110.0000001059764
 33
0.0
 14
388.599012369113
 24
105.7842132987962
 34
0.0
 15
391.8782448435886
 25
110.0000001059751
 35
0.0
 16
413.1866606430342
 26
96.79681833010427
 36
0.0
  0
INSERT
  5
9543
  8
\M+19557\M+19290\M+190FC
  2
*X50
 10
0.0
 20
0.0
 30
0.0
  0
TEXT
  5
9544
  8
\M+19557\M+19290\M+190FC
  6
CONTINUOUS
 62
     3
 10
346.7232356081282
 20
123.3761512430768
 30
0.0
 40
2.5
  1
PT1/8
  0
CIRCLE
  5
9545
  8
本體外線
 10
457.7573504007736
 20
110.0000001059751
 30
0.0
 40
2.500000000001336
  0
LINE
  5
9546
  8
中心線
 10
457.7573504007736
 20
99.0303449913721
 30
0.0
 11
457.7573504007736
 21
120.9696552205782
 31
0.0
  0
CIRCLE
  5
9547
  8
本體外線
 10
457.7573504007736
 20
110.0000001059751
 30
0.0
 40
3.644516428829832
  0
CIRCLE
  5
9548
  8
本體外線
 10
457.7573504007736
 20
110.0000001059751
 30
0.0
 40
5.425172808308915
  0
CIRCLE
  5
9549
  8
本體外線
 10
457.7573504007736
 20
110.0000001059751
 30
0.0
 40
8.500000000000028
  0
POLYLINE
  5
954A
  8
本體外線
 66
     1
 10
0.0
 20
0.0
 30
0.0
 70
     1
  0
VERTEX
  5
9790
  8
本體外線
 10
457.7573504007736
 20
119.8149546821989
 30
0.0
  0
VERTEX
  5
9791
  8
本體外線
 10
449.2573504007735
 20
114.907477394087
 30
0.0
  0
VERTEX
  5
9792
  8
本體外線
 10
449.2573504007735
 20
105.0925228178632
 30
0.0
  0
VERTEX
  5
9793
  8
本體外線
 10
457.7573504007736
 20
100.1850455297513
 30
0.0
  0
VERTEX
  5
9794
  8
本體外線
 10
466.2573504007737
 20
105.0925228178632
 30
0.0
  0
VERTEX
  5
9795
  8
本體外線
 10
466.2573504007737
 20
114.907477394087
 30
0.0
  0
SEQEND
  5
97A8
  8
本體外線
  0
LINE
  5
954B
  8
中心線
 10
448.2573504007735
 20
110.0000001059751
 30
0.0
 11
467.2573504007737
 21
110.0000001059751
 31
0.0
  0
CIRCLE
  5
954C
  8
本體外線
 10
457.7573504007736
 20
110.0000001059751
 30
0.0
 40
2.0
  0
DIMENSION
  5
954D
  8
\M+19557\M+19290\M+190FC
  2
*D47
 10
466.2573504007737
 20
128.5821553004181
 30
0.0
 11
457.7573504007736
 21
130.6821553004181
 31
0.0
 70
    32
 13
449.2573504007735
 23
114.907477394087
 33
0.0
 14
466.2573504007737
 24
114.907477394087
 34
0.0
  0
DIMENSION
  5
9550
  8
\M+19557\M+19290\M+190FC
  2
*D40
 10
353.6911789467347
 20
107.0000001059747
 30
0.0
 11
351.5911789467347
 21
110.0000001059751
 31
0.0
 70
    32
  1
%%c<>
 13
361.3782448435886
 23
113.0000001059753
 33
0.0
 14
361.3782448435887
 24
107.0000001059747
 34
0.0
 50
90.0
  0
DIMENSION
  5
9553
  8
\M+19557\M+19290\M+190FC
  2
*D41
 10
388.599012369113
 20
114.2157869131566
 30
0.0
 11
412.3745436250007
 21
119.3947370248312
 31
0.0
 70
    34
 13
391.8782448435886
 23
110.0000001059751
 33
0.0
 14
359.8782448435888
 24
110.000000105975
 34
0.0
 15
382.5782448435889
 25
110.0000001059764
 35
0.0
 16
415.2317010170265
 26
116.742396458063
 36
0.0
  0
CIRCLE
  5
9557
  8
本體外線
 10
457.7573504007736
 20
110.0000001059751
 30
0.0
 40
3.000000000001307
  0
DIMENSION
  5
9558
  8
\M+19557\M+19290\M+190FC
  2
*D42
 10
408.0261013764774
 20
107.0000001059764
 30
0.0
 11
408.0261013764774
 21
110.0000001059765
 31
0.0
 70
   160
  1
%%c<>
 13
390.6782448435872
 23
113.0000001059764
 33
0.0
 14
390.6782448435899
 24
107.0000001059764
 34
0.0
 50
90.0
  0
INSERT
  5
95E8
  8
DM
  2
*X51
 10
0.0
 20
0.0
 30
0.0
  0
ENDSEC
  0
EOF
